Loading...
Error

Танки (Ким Дружинин) [2018 г., приключения, история, военный, BDRemux 1080p]

Статистика раздачи
Размер:  21,12 GB   |    Зарегистрирован:  2 года   |    Скачан:  19 раз

Полного источника не было: 6 месяцев

Сидов:  0  |  0 KB/s  ]   Личеров:  0  |  0 KB/s  ]

* - сиды/пиры с внешних источников

   
 
Автор Сообщение

90ytr90 

19-Июл-2018 19:02

Танки
«Первые непобедимые»

Страна: Россия
Год выпуска: 2018
Жанр: приключения, история, военный
Продолжительность: 01:33:05
Озвучивание: оригинальная звуковая дорожка [лицензия]
Режиссёр: Ким Дружинин

В ролях:
Андрей Мерзликин, Аглая Тарасова, Сергей Стукалов, Антон Филипенко, Алексей Овсянников, Дмитрий Поднозов, Георги Майсурадзе, Владимир Верёвочкин, Дмитрий Цуцкин, Андрей Дежонов и др.


Сюжет фильма:
На пороге войны с фашистской Германией инженер Михаил Кошкин разрабатывает прототип нового инновационного танка Т-34. Чтобы доказать уникальность боевой машины, Кошкин и его команда отправляются в Москву на танках своим ходом. Но вскоре пробег превращается в непредсказуемую гонку, где бездорожье лишь меньшее из зол… Пройдя череду опасных приключений и благодаря безупречным техническим и боевым качествам новых танков, героям удается одержать верх над преследователями и доказать превосходство Т-34.

  • Дата российской премьеры: 26 апреля 2018, «Двадцатый Век Фокс СНГ»
             
Качество видео: BDRemux 1080p
Формат: MKV
Видео: AVC, 1920x1080 (16:9), 28.2 Mbps, 24 fps, 0.567 bit/pixel
Аудио: DTS-HD MA, 4276/1509 kbps, 6 ch, 48 kHz, Original [лицензия]
Навигация по главам: есть (9)

Сборка: =Ved-Uk=
Format : Matroska
Format version : Version 4 / Version 2
File size : 21.1 GiB
Duration : 1 h 33 min
Overall bit rate mode : Variable
Overall bit rate : 32.5 Mb/s
Movie name : Танки (2018) BDRemux 1080p | =Ved-Uk=
Encoded date : UTC 2018-07-19 17:45:45
Writing application : mkvmerge v22.0.0 ('At The End Of The World') 64-bit
Writing library : libebml v1.3.5 + libmatroska v1.4.8

Video
ID : 1
Format : AVC
Format/Info : Advanced Video Codec
Format profile : High@L4.1
Format settings, CABAC : Yes
Format settings, RefFrames : 3 frames
Codec ID : V_MPEG4/ISO/AVC
Duration : 1 h 33 min
Bit rate mode : Variable
Bit rate : 28.2 Mb/s
Maximum bit rate : 35.0 Mb/s
Width : 1 920 pixels
Height : 1 080 pixels
Display aspect ratio : 16:9
Frame rate mode : Constant
Frame rate : 24.000 FPS
Standard : NTSC
Color space : YUV
Chroma subsampling : 4:2:0
Bit depth : 8 bits
Scan type : Progressive
Bits/(Pixel*Frame) : 0.567
Stream size : 18.3 GiB (87%)
Title : Танки (2018)
Language : Russian
Default : Yes
Forced : No
Color range : Limited
Color primaries : BT.709
Transfer characteristics : BT.709
Matrix coefficients : BT.709

Audio
ID : 2
Format : DTS
Format/Info : Digital Theater Systems
Format profile : MA / Core
Mode : 16
Format settings, Endianness : Big
Codec ID : A_DTS
Duration : 1 h 33 min
Bit rate mode : Variable / Constant
Bit rate : 4 276 kb/s / 1 509 kb/s
Channel(s) : 6 channels
Channel positions : Front: L C R, Side: L R, LFE
Sampling rate : 48.0 kHz
Frame rate : 93.750 FPS (512 SPF)
Bit depth : 24 bits
Compression mode : Lossless / Lossy
Stream size : 2.78 GiB (13%)
Title : Оригинал
Language : Russian
Default : Yes
Forced : No

Menu
00:00:00.000 : :Chapter 1
00:01:13.416 : :Chapter 2
00:10:40.416 : :Chapter 3
00:20:29.583 : :Chapter 4
00:32:30.208 : :Chapter 5
00:44:52.791 : :Chapter 6
00:57:32.791 : :Chapter 7
01:07:56.666 : :Chapter 8
01:20:44.583 : :Chapter 9


скриншоты



pic pic pic pic pic pic

Этот торрент недоступен для скачивания без регистрации, однако доступен по публичной magnet-ссылке (источники с публичных трекеров). Перед использованием ссылки прочтите, пожалуйста Пользовательское соглашение, а также как можно дольше оставайтесь на раздаче! Для того, чтобы скачать сам торрент-файл (который видит больше источников), а также для того, чтобы поблагодарить релизера, вам необходимо зарегистрироваться. Если регистрироваться лень - вы можете также попробовать скачать релиз по нашим партнерским ссылкам ниже. Кроме того, зарегистрированным пользователям не показывается всплывающая реклама при скачивании.

[underverse.in].t109174.torrent
Трекер: Зарегистрирован   [ 19.07.2018 19:02 ]  

Статус: проверено (by 90ytr90 at 20.07.2018 06:24)
Поблагодарили: 1 человек
Тип торрента: публичный - доступные источники с открытых трекеров: 
Размер: 21,12 GB (занимает 4,83 DVDR, для записи нужно 5 болванок DVDR/RW)
 
 
Похожие темы
Форум Тема Автор Торрент Отв. Посл. сооб.
Наше кино [DVDRip, Low-Res HDRip, и т.д.] Танки (Ким Дружинин) [2018 г., приключения, история, военный, BDRip] 90ytr90
192 | 5

1 | 972

49

29.04.2019 19:24

Наше кино [DVDRip, Low-Res HDRip, и т.д.] Танки (Ким Дружинин) [2018 г., приключения, история, военный, BDRip-AVC] 90ytr90
11 | 1

0 | 578

20

15.07.2018 13:13

# Наше кино [DVDRip, Low-Res HDRip, и т.д.] Танки (Ким Дружинин) [2018 г., приключения, история, военный, BDRip-AVC] 90ytr90
53 | 1

0 | 555

26

21.07.2018 07:32

Наше кино [HDDVDRip / BDRip / WEB-DL / HDTV 1080/720р] Танки (Ким Дружинин) [2018 г., приключения, история, военный, WEB-DL 720p] Rus (iTunes) makkol
13 | 0

0 | 584

19

30.05.2018 21:24

Наше кино [HDDVDRip / BDRip / WEB-DL / HDTV 1080/720р] Танки (Ким Дружинин) [2018 г., приключения, история, военный, WEB-DL 1080p] Rus (iTunes) makkol
1 | 0

0 | 1049

68

30.05.2018 21:29

Наше кино [HDDVDRip / BDRip / WEB-DL / HDTV 1080/720р] Танки (Ким Дружинин) [2018 г., приключения, история, военный, BDRip 1080p] 90ytr90
65 | 1

0 | 707

36

15.07.2018 13:13

Наше кино [HDDVDRip / BDRip / WEB-DL / HDTV 1080/720р] Танки (Ким Дружинин) [2018 г., приключения, история, военный, BDRip 720p] 90ytr90
46 | 1

0 | 676

21

15.07.2018 13:13


Яндекс.Метрика powered by Sphinx


В Н И М А Н И Е
Сайт не распространяет и не хранит электронные версии произведений, а лишь бесплатно и без коммерческой выгоды (не требуя взамен платы,
SMS и т.д.) предоставляет доступ к создаваемому пользователями каталогу ссылок на торрент-файлы, которые содержат только списки хеш-сумм.
Убедительная просьба с жалобами обращаться напрямую к пользователю, разместившему торрент файл.

Вверх