Loading...
Error

Сумерки. Сага. Новолуние / The Twilight Saga: New Moon (Крис Вайц / Chris Weitz) [2009 г., фэнтези, мелодрама, BDRip]

Статистика раздачи
Размер:  2,91 GB   |    Зарегистрирован:  9 лет 6 месяцев   |    Скачан:  4 раза

Полного источника не было: 8 лет 7 месяцев

Сидов:  0  |  0 KB/s  ]   Личеров:  0  |  0 KB/s  ]

* - сиды/пиры с внешних источников

   
 
Автор Сообщение

GUree Пол:Муж

06-Май-2010 22:29

Сумерки. Сага. Новолуние / The Twilight Saga: New Moon


Год выпуска: 2009
Жанр: фэнтези, мелодрама
Страна: США
Режиссер: Крис Вайц / Chris Weitz
В ролях: Кристен Стюарт, Тэйлор Лотнер, Роберт Паттинсон, Билли Бёрк, Эшли Грин, Анна Кендрик, Кристиан Серратос, Майкл Уэлш, Джастин Чон, Кристина Ястржембска

Сюжет фильма: Влюбиться в вампира — страшно и романтично. Но потерять любимого, решившего ценой разрыва спасти свою девушку от роли пешки в вечном противостоянии кланов «ночных охотников», — это просто невыносимо. Белла Свон мучительно переживает исчезновение Эдварда и безуспешно ищет забвения в дружбе с мальчишкой-индейцем Джейкобом Блэком. Она даже не подозревает, что её лучший друг — порождение ещё одного «народа Тьмы». Народа, куда более жестокого и опасного, чем аристократы-вампиры…

  • Мировая премьера: 16 ноября 2009
  • Российская премьера: 19 ноября 2009, «West»




Личная оценка: 10 - всем советую

Качество видео: BDRip

Продолжительность: 02:10:38
Видео: кодек: x264, формат: mkv, размер кадра: 1024x424, битрейт: 2229 kbps
Аудио #1: язык: русский, перевод: дублированный (дубляж), кодек: AC3 5.1, битрейт: 448 kbps
Аудио #2: язык: английский, перевод: оригинал, кодек: AC3 5.1, битрейт: 448 kbps
Субтитры #1: тип: вшитые отключаемые, язык: русский, формат: S_TEXT/UTF8
Субтитры #2: тип: вшитые отключаемые, язык: английский, формат: S_TEXT/UTF8

Семпл 1 на multi-up
Семпл 2 на multi-up

Релиз группы:








General
Complete name : The_Twilight_Saga.New_Moon.2009.BDRip.AVC.mkv
Format : Matroska
File size : 2.91 GiB
Duration : 2h 10mn
Overall bit rate : 3 189 Kbps
Movie name : -=GUree=-
Encoded date : UTC 2010-05-06 12:04:01
Writing application : mkvmerge v3.3.0 ('Language') строится на Apr 12 2010 10:07:49
Writing library : libebml v0.8.0 + libmatroska v0.9.0

Video
ID : 1
Format : AVC
Format/Info : Advanced Video Codec
Format profile : High@L4.1
Format settings, CABAC : Yes
Format settings, ReFrames : 8 frames
Format_Settings_GOP : N=1
Muxing mode : Container profile=Unknown@4.1
Codec ID : V_MPEG4/ISO/AVC
Duration : 2h 10mn
Bit rate : 2 230 Kbps
Nominal bit rate : 2 293 Kbps
Width : 1 024 pixels
Height : 424 pixels
Display aspect ratio : 2.40:1
Frame rate : 23.976 fps
Resolution : 8 bits
Colorimetry : 4:2:0
Scan type : Progressive
Bits/(Pixel*Frame) : 0.214
Stream size : 2.03 GiB (70%)
Writing library : x264 core 92 r1510 33d382a
Encoding settings : cabac=1 / ref=8 / deblock=1:-2:-1 / analyse=0x3:0x113 / me=tesa / subme=10 / psy=1 / psy_rd=1.00:0.40 / mixed_ref=1 / me_range=32 / chroma_me=1 / trellis=2 / 8x8dct=1 / cqm=0 / deadzone=21,11 / fast_pskip=0 / chroma_qp_offset=-4 / threads=6 / sliced_threads=0 / nr=0 / decimate=0 / interlaced=0 / constrained_intra=0 / bframes=6 / b_pyramid=2 / b_adapt=2 / b_bias=0 / direct=3 / wpredb=1 / wpredp=2 / keyint=250 / keyint_min=25 / scenecut=40 / intra_refresh=0 / rc_lookahead=60 / rc=2pass / mbtree=1 / bitrate=2293 / ratetol=1.0 / qcomp=0.70 / qpmin=10 / qpmax=51 / qpstep=4 / cplxblur=20.0 / qblur=0.5 / vbv_maxrate=50000 / vbv_bufsize=50000 / ip_ratio=1.40 / aq=1:0.90 / nal_hrd=none
Language : English

Audio #1
ID : 2
Format : AC-3
Format/Info : Audio Coding 3
Format_Settings_ModeExtension : CM (complete main)
Codec ID : A_AC3
Duration : 2h 10mn
Bit rate mode : Constant
Bit rate : 448 Kbps
Channel(s) : 6 channels
Channel positions : Front: L C R, Side: L R, LFE
Sampling rate : 48.0 KHz
Stream size : 419 MiB (14%)
Title : AC3 5.1 448Kb/s
Language : Russian

Audio #2
ID : 3
Format : AC-3
Format/Info : Audio Coding 3
Format_Settings_ModeExtension : CM (complete main)
Codec ID : A_AC3
Duration : 2h 10mn
Bit rate mode : Constant
Bit rate : 448 Kbps
Channel(s) : 6 channels
Channel positions : Front: L C R, Side: L R, LFE
Sampling rate : 48.0 KHz
Stream size : 419 MiB (14%)
Title : AC3 5.1 448Kb/s
Language : English

Text #1
ID : 4
Format : UTF-8
Codec ID : S_TEXT/UTF8
Codec ID/Info : UTF-8 Plain Text
Language : Russian

Text #2
ID : 5
Format : UTF-8
Codec ID : S_TEXT/UTF8
Codec ID/Info : UTF-8 Plain Text
Language : English

Этот торрент недоступен для скачивания без регистрации, однако доступен по публичной magnet-ссылке (источники с публичных трекеров). Перед использованием ссылки прочтите, пожалуйста Пользовательское соглашение, а также как можно дольше оставайтесь на раздаче! Для того, чтобы скачать сам торрент-файл (который видит больше источников), а также для того, чтобы поблагодарить релизера, вам необходимо зарегистрироваться. Если регистрироваться лень - вы можете также попробовать скачать релиз по нашим партнерским ссылкам ниже. Кроме того, зарегистрированным пользователям не показывается всплывающая реклама при скачивании.

[underverse.su].t10041.torrent
Трекер: Зарегистрирован   [ 06.05.2010 22:29 ]  

Статус: проверено (by GUree at 06.05.2010 23:14)
Поблагодарили: 1 человек
Тип торрента: публичный - доступные источники с открытых трекеров: 
Размер: 2,91 GB (занимает 2/3 DVDR, для записи нужно 1 болванка DVDR/RW)
 
 
Похожие темы
Форум Тема Автор Торрент Отв. Посл. сооб.
Зарубежное кино [DVDRip, Low-Res HDRip, и т.д.] Сумерки. Сага. Рассвет: Часть 1 / The Twilight Saga: Breaking Dawn - Part 1 (Билл Кондон) [2011 г., фэнтези, драма, мелодрама, HDRip] 90ytr90
138 | 2

3 | 1989

48

01.06.2013 19:04

Зарубежное кино [DVDRip, Low-Res HDRip, и т.д.] Сумерки. Сага. Затмение / The Twilight Saga: Eclipse (Дэвид Слэйд) [2010 г., фэнтези, триллер, мелодрама, BDRip] Dub + Original garry
9 | 1

0 | 1921

29

17.02.2013 22:32

Зарубежное кино [DVDRip, Low-Res HDRip, и т.д.] Сумерки. Сага. Рассвет: Часть 2 / The Twilight Saga: Breaking Dawn - Part 2 (Билл Кондон / Bill Condon) [2012 г., фэнтези, драма, мелодрама, приключения, BDRip] Dub + Original 90ytr90
7 | 1

0 | 1194

13

13.03.2013 14:09

Зарубежное кино [DVDRip, Low-Res HDRip, и т.д.] Сумерки. Сага. Рассвет: Часть 2 / The Twilight Saga: Breaking Dawn - Part 2 (Билл Кондон / Bill Condon) [2012 г., фэнтези, драма, мелодрама, приключения, HDRip] Dub 90ytr90
63 | 1

0 | 2024

42

13.03.2013 14:16

Зарубежное кино [DVDRip, Low-Res HDRip, и т.д.] Сумерки. Сага. Рассвет: Часть 2 / The Twilight Saga: Breaking Dawn - Part 2 (Билл Кондон) [2012 г., фэнтези, драма, мелодрама, приключения, BDRip-AVC] Dub + Original Чертёнок
25 | 0

0 | 1290

15

13.03.2013 20:18

Зарубежное кино [DVD / HDDVD / BD / Remux] Сумерки. Сага. Рассвет: Часть 2 / The Twilight Saga: Breaking Dawn - Part 2 (Билл Кондон / Bill Condon) [2012, США, фэнтези, драма, мелодрама, приключения, Blu-ray Disc 1080p] Dub + Ukr + Original +... uzi2009
1 | 1

0 | 1438

3

28.01.2014 22:42

Зарубежное кино [HDDVDRip / BDRip / WEB-DL / HDTV 1080/720р] Сумерки. Сага. Рассвет: Часть 2 / The Twilight Saga: Breaking Dawn - Part 2 ( Билл Кондон) [2012 г., фэнтези, драма, мелодрама, приключения, BDRip 1080p] Dub + Original Чертёнок
1 | 0

0 | 1285

13

14.03.2013 12:21

Архив (художественные фильмы) Сумерки. Сага. Новолуние / The Twilight Saga: New Moon (Крис Вайц / Chris Weitz) [2009 г., Ужасы, триллер, фэнтези, мелодрама, драма, HD DVDRip] GanibalKing
0 | 0

3 | 1679

0

12.11.2010 23:48

Архив (художественные фильмы) Сумерки. Сага. Новолуние / The Twilight Saga: New Moon (Крис Вайц) [2009 г., ужасы, триллер, фэнтези, мелодрама, драма,HDDVDrip Joey
0 | 0

5 | 2364

41

31.01.2018 13:46

Архив (художественные фильмы) Сумерки. Сага. Затмение (Дэвид Слэйд / David Slade) [2010 г., ужасы, триллер, фэнтези, мелодрама, DVDRip] GanibalKing
0 | 0

1 | 1524

4

31.01.2018 13:48



Последний раз редактировалось: GUree (13.07.2010 13:25), всего редактировалось 1 раз

Baranello Пол:Муж

11-Июл-2010 14:29

:good: Спасибо. мне фильм нравитса, луче чем книга (1 книгу прочол - дневник 12 летней девочки)

serleon07 

04-Сен-2010 04:26

Кто знает когда третья часть появится?

Unique Пол:Муж

04-Сен-2010 06:59

serleon07
третяя часть уже давно есть!!!

JRGOR55 Пол:Муж

09-Сен-2010 15:15

GUree :evil: Питерский!
Давай раздачу,а для картинок есть другой!

05-Ноя-2011 14:45

Топик был перенесен из форума Зарубежное кино AVC в форум Архив


[cron robot]
 

Яндекс.Метрика powered by Sphinx


В Н И М А Н И Е
Сайт не распространяет и не хранит электронные версии произведений, а лишь бесплатно и без коммерческой выгоды (не требуя взамен платы,
SMS и т.д.) предоставляет доступ к создаваемому пользователями каталогу ссылок на торрент-файлы, которые содержат только списки хеш-сумм.
Убедительная просьба с жалобами обращаться напрямую к пользователю, разместившему торрент файл.

Вверх