Loading...
Error

Лига смеха 2018. (01). Фестиваль в Одессе, часть 2 / Ліга сміху [09.03.2018, Юмористическое шоу, WEB-DL 1080p]

Статистика раздачи
Размер:  3,07 GB   |    Зарегистрирован:  1 год 9 месяцев   |    Скачан:  3 раза

Полного источника не было: 1 год 3 месяца

Сидов:  0  |  0 KB/s  ]   Личеров:  0  |  0 KB/s  ]

* - сиды/пиры с внешних источников

   
 
Автор Сообщение

дядя1111 Пол:Муж

01-Окт-2018 10:13

Лига смеха 2018. (01). Фестиваль в Одессе, часть 2 / Ліга сміху


Дата/Год выпуска: Эфир: 09.03.2018
Страна: Украина
Жанр: Юмористическое шоу
Продолжительность: 01:44:47
Перевод: Не требуется
Русские субтитры: нет

Оригинальная аудиодорожка: русский, украинский (~75/25)
Ведущий: Владимир Зеленский

Жюри: Ольга Полякова, Станислав Боклан, Юрий Ткач, Влад Яма, Евгений Кошевой, Игорь Ласточкин, Надя Дорофеева

Телеканал: 1+1
Описание: «Квартал 95» представляет юмористический проект «Лига cмеха», который закладывает основы нового молодежного движения в Украине. Теперь все желающие - СТЭМы, команды КВН и просто весёлые компании - могут попробовать свои силы и принять участие в чемпионате Украины по Юмору.

Доп. информация: "Квартал-95", "Драйв Продакшн"

Качество: WEB-DL 1080p
Формат: MKV
Видео: 1920x1080 (16:9), 25 fps, Mpeg4 AVC ~4000 kbps
Аудио: 48,0 КГц, AАС, 2 ch, 192.00 kbps
Тёлка - это ты! А это Надя Дорофеева - Отдыхаем Вместе
Любовь в неадекватной семье - Гостиница 72
Колядки за Iphone - Сборная Львова
Кто не скачет, тот москаль - Пошло Поехало
Вот такие подъездные дрозды - Лукас
Мазерати в мире жигулей - Сборная армян Украины "Джан"
Пранк с чужой женой - Стадион Диброва
Оружие, наркотики, Кобзон - Юмор Среднего Возраста
Лига плохих политических шуток - Порошенко VS Тимошенко - Винницкие
Превышение Уровня Похоти - Воробушек
Юмор натуралов vs ненатуралов - Брак Ромашка
[pre]
Полное имя : D:\Торренты\Лига Смеха 2018 - Фестиваль в Одессе часть 2\Лига Смеха 2018 - Фестиваль в Одессе часть 2.mkv
Формат : Matroska
Версия формата : Version 4 / Version 2
Размер файла : 3,07 Гбайт
Продолжительность : 1 ч. 44 м.
Общий поток : 4194 Кбит/сек
Дата кодирования : UTC 2018-03-10 08:53:30
Программа кодирования : mkvmerge v8.1.0 ('Psychedelic Postcard') 64bit
Библиотека кодирования : libebml v1.3.1 + libmatroska v1.4.2

Видео
Идентификатор : 1
Формат : AVC
Формат/Информация : Advanced Video Codec
Профиль формата : High@L4
Параметр CABAC формата : Да
Параметр ReFrames формата : 3 кадра
Идентификатор кодека : V_MPEG4/ISO/AVC
Продолжительность : 1 ч. 44 м.
Битрейт : 3999 Кбит/сек
Ширина : 1912 пикселей
Ширина оригинала : 1920 пикселей
Высота : 1088 пикселей
Высота оригинала : 1080 пикселей
Соотношение сторон : 16:9
Соотношение сторон в оригинале : 16:9
Режим частоты кадров : Постоянный
Частота кадров : 25,000 кадров/сек
Цветовое пространство : YUV
Субдискретизация насыщенности : 4:2:0
Битовая глубина : 8 бит
Тип развёртки : Прогрессивная
Бит/(Пиксели*Кадры) : 0.077
Размер потока : 2,93 Гбайт (95%)
Default : Да
Forced : Нет

Аудио
Идентификатор : 2
Формат : AAC
Формат/Информация : Advanced Audio Codec
Профиль формата : LC
Идентификатор кодека : A_AAC
Продолжительность : 1 ч. 44 м.
Битрейт : 192 Кбит/сек
Каналы : 2 канала
Расположение каналов : Front: L R
Частота : 48,0 КГц
Частота кадров : 46,875 кадров/сек (1024 spf)
Метод сжатия : С потерями
Задержка видео : -40 мс.
Размер потока : 144 Мбайт (5%)
Заголовок : rus+ukr
Язык : Russian
Default : Да
Forced : Нет

[/pre]

Этот торрент недоступен для скачивания без регистрации, однако доступен по публичной magnet-ссылке (источники с публичных трекеров). Перед использованием ссылки прочтите, пожалуйста Пользовательское соглашение, а также как можно дольше оставайтесь на раздаче! Для того, чтобы скачать сам торрент-файл (который видит больше источников), а также для того, чтобы поблагодарить релизера, вам необходимо зарегистрироваться. Если регистрироваться лень - вы можете также попробовать скачать релиз по нашим партнерским ссылкам ниже. Кроме того, зарегистрированным пользователям не показывается всплывающая реклама при скачивании.

[underverse.name].t115043.torrent
Трекер: Зарегистрирован   [ 01.10.2018 10:13 ]  

Статус: проверено (by makkol at 01.10.2018 19:00)
Поблагодарили: пока никто не поблагодарил...
Тип торрента: публичный - доступные источники с открытых трекеров: 
Размер: 3,07 GB (занимает 0,7 DVDR, для записи нужно 1 болванка DVDR/RW)
 
 
Похожие темы
Форум Тема Автор Торрент Отв. Посл. сооб.
Телепередачи и шоу Лига смеха 2019. (03). Вторая игра / Ліга сміху [22.03.2019, Юмористическое шоу, WEBRip 720p] дядя1111
1 | 0

0 | 409

3

23.03.2019 07:23

Телепередачи и шоу Лига смеха 2018. (10). Летний кубок. Часть 1 / Ліга сміху [05.10.2018, Юмористическое шоу, WEBRip 720p] дядя1111
0 | 0

0 | 822

4

07.10.2018 07:50

Телепередачи и шоу Лига смеха 2019. (09). Кубок чемпионов / Ліга сміху [27.09.2019, Юмористическое шоу, WEBRip 720p] дядя1111
10 | 0

0 | 477

2

28.09.2019 09:01

Телепередачи и шоу Лига смеха 2018. (01). Фестиваль в Одессе, часть 1 / Ліга сміху [02.03.2018, Юмористическое шоу, WEB-DL 1080p] дядя1111
2 | 0

0 | 826

4

01.10.2018 10:11

Телепередачи и шоу Лига смеха 2018. (02). Первая игра / Ліга сміху [16.03.2018, Юмористическое шоу, WEB-DL 1080p] дядя1111
0 | 0

0 | 893

3

01.10.2018 10:15

Телепередачи и шоу Лига смеха 2018. (03). Вторая игра / Ліга сміху [23.03.2018, Юмористическое шоу, WEB-DL 1080p] дядя1111
5 | 0

0 | 837

3

01.10.2018 10:16

Телепередачи и шоу Лига смеха 2018. (04). Третья игра / Ліга сміху [30.03.2018, Юмористическое шоу, WEB-DL 1080p] дядя1111
11 | 0

0 | 782

3

01.10.2018 10:18

Телепередачи и шоу Лига смеха 2018. (05). Четвертая игра / Ліга сміху [06.04.2018, Юмористическое шоу, WEB-DL 1080p] дядя1111
0 | 0

0 | 945

2

01.10.2018 10:20

Телепередачи и шоу Лига смеха 2018. (06). Пятая игра / Ліга сміху [13.04.2018, Юмористическое шоу, WEB-DL 1080p] дядя1111
6 | 2

0 | 835

3

01.10.2018 10:22

Телепередачи и шоу Лига смеха 2018. (07). Шестая игра / Ліга сміху [20.04.2018, Юмористическое шоу, WEB-DL 1080p] дядя1111
1 | 0

0 | 862

4

01.10.2018 10:24


Яндекс.Метрика powered by Sphinx


В Н И М А Н И Е
Сайт не распространяет и не хранит электронные версии произведений, а лишь бесплатно и без коммерческой выгоды (не требуя взамен платы,
SMS и т.д.) предоставляет доступ к создаваемому пользователями каталогу ссылок на торрент-файлы, которые содержат только списки хеш-сумм.
Убедительная просьба с жалобами обращаться напрямую к пользователю, разместившему торрент файл.

Вверх