Loading...
Error

О любви (Владимир Бортко) [2017 г., мелодрама, Blu-ray Disc] Rus + Ger

Статистика раздачи
Размер:  19,75 GB   |    Зарегистрирован:  1 год 8 месяцев   |    Скачан:  4 раза

Полного источника не было: 4 месяца 6 дней

Сидов:  0  |  0 KB/s  ]   Личеров:  0  |  0 KB/s  ]

* - сиды/пиры с внешних источников

   
 
Автор Сообщение

makkol Пол:Муж

16-Ноя-2018 11:58

О любви


Год выпуска: 2017
Жанр: мелодрама
Производство: Россия [Studio 2-B-2 entertainment]
Режиссер: Владимир Бортко
В ролях: Анна Чиповская, Алексей Чадов, Мария Миронова, Александр Лыков, Дмитрий Певцов, Светлана Хомич, Ольга Павлюкова, Клавдия Белова
Сюжет фильма:
Петербурженка Нина — студентка, жена молодого красавца-профессора, который знает китайский язык и учения Поднебесной, похоже, лучше, чем окружающую российскую действительность. Нина убеждена, что супружеская верность и смирение и есть любовь. Но всё меняется, когда в её жизни появляется банкир Сергей...

  • Российская премьера: 23 марта 2017


Качество видео: Blu-ray Disc

Продолжительность: 01:34:55
Формат: M2TS
Видео: MPEG-4 AVC, 1920x1080 (16:9), 24.000 fps, 22388 kbps
Аудио #1: русский (лицензия BD GER), DTS-HD MA 5.1, 48 kHz, 1378 kbps
Аудио #2: немецкий, DTS-HD MA 5.1, 48 kHz, 1431 kbps
Субтитры: немецкие вшитые отключаемые

Код:

Disc Title: O.Sexuelles.Verlangen.2017.DUAL.COMPLETE.BLURAY-UNiVERSUM
Disc Size: 21,205,496,389 bytes
Protection: AACS
Extras: 50Hz Content
BDInfo: 0.7.4.0

Notes:

BDINFO HOME:
Cinema Squid (old)
http://www.cinemasquid.com/blu-ray/tools/bdinfo
UniqProject GitHub (new)
https://github.com/UniqProject/BDInfo

INCLUDES FORUMS REPORT FOR:
AVS Forum Blu-ray Audio and Video Specifications Thread
http://www.avsforum.com/avs-vb/showthread.php?t=1155731

********************
PLAYLIST: 01001.MPLS
********************

[code]
Total Video
Title Codec Length Movie Size Disc Size Bitrate Bitrate Main Audio Track Secondary Audio Track
----- ------ ------- -------------- -------------- ------- ------- ------------------ ---------------------
01001.MPLS AVC 1:34:55 19,008,626,688 21,205,496,389 26.70 22.39 DTS-HD Master 5.1 1431Kbps (48kHz/16-bit)
[/code]

[code]

DISC INFO:

Disc Title: O.Sexuelles.Verlangen.2017.DUAL.COMPLETE.BLURAY-UNiVERSUM
Disc Size: 21,205,496,389 bytes
Protection: AACS
Extras: 50Hz Content
BDInfo: 0.7.4.0

PLAYLIST REPORT:

Name: 01001.MPLS
Length: 1:34:55.042 (h:m:s.ms)
Size: 19,008,626,688 bytes
Total Bitrate: 26.70 Mbps

VIDEO:

Codec Bitrate Deion
----- ------- -----------
MPEG-4 AVC Video 22388 kbps 1080p / 24 fps / 16:9 / High Profile 4.1

AUDIO:

Codec Language Bitrate Deion
----- -------- ------- -----------
DTS-HD Master Audio German 1431 kbps 5.1 / 48 kHz / 1431 kbps / 16-bit (DTS Core: 5.1 / 48 kHz / 768 kbps / 16-bit)
DTS-HD Master Audio Russian 1378 kbps 5.1 / 48 kHz / 1378 kbps / 16-bit (DTS Core: 5.1 / 48 kHz / 768 kbps / 16-bit)

SUBTITLES:

Codec Language Bitrate Deion
----- -------- ------- -----------
Presentation Graphics German 21.998 kbps
Presentation Graphics German 0.039 kbps

FILES:

Name Time In Length Size Total Bitrate
---- ------- ------ ---- -------------
00005.M2TS 0:00:00.000 1:34:54.041 19,008,331,776 26,706
00013.M2TS 1:34:54.041 0:00:01.000 294,912 2,357

CHAPTERS:

Number Time In Length Avg Video Rate Max 1-Sec Rate Max 1-Sec Time Max 5-Sec Rate Max 5-Sec Time Max 10Sec Rate Max 10Sec Time Avg Frame Size Max Frame Size Max Frame Time
------ ------- ------ -------------- -------------- -------------- -------------- -------------- -------------- -------------- -------------- -------------- --------------
1 0:00:00.000 0:02:12.125 19,259 kbps 36,340 kbps 00:00:47.291 24,769 kbps 00:01:07.208 23,752 kbps 00:01:07.416 100,275 bytes 645,918 bytes 00:00:57.291
2 0:02:12.125 0:08:03.791 22,998 kbps 35,302 kbps 00:02:14.583 24,530 kbps 00:09:27.833 23,963 kbps 00:09:27.958 119,779 bytes 614,985 bytes 00:06:34.583
3 0:10:15.916 0:09:07.749 22,995 kbps 31,387 kbps 00:19:21.499 24,917 kbps 00:10:25.458 24,030 kbps 00:10:25.083 119,767 bytes 591,264 bytes 00:15:11.041
4 0:19:23.666 0:10:14.041 22,997 kbps 33,363 kbps 00:23:43.124 24,857 kbps 00:23:39.500 23,875 kbps 00:21:38.749 119,775 bytes 602,496 bytes 00:27:58.541
5 0:29:37.708 0:10:23.500 23,001 kbps 30,980 kbps 00:30:14.583 24,860 kbps 00:31:46.000 23,898 kbps 00:39:29.166 119,796 bytes 714,647 bytes 00:39:53.958
6 0:40:01.208 0:09:50.291 23,000 kbps 30,551 kbps 00:41:05.541 24,748 kbps 00:43:27.916 23,910 kbps 00:45:01.875 119,792 bytes 615,371 bytes 00:41:47.541
7 0:49:51.500 0:07:42.541 23,002 kbps 32,058 kbps 00:53:05.750 24,995 kbps 00:57:28.625 23,873 kbps 00:56:06.375 119,800 bytes 592,453 bytes 00:52:54.291
8 0:57:34.041 0:08:58.208 22,998 kbps 31,940 kbps 01:03:42.833 24,973 kbps 01:03:30.666 23,927 kbps 01:02:27.958 119,783 bytes 595,384 bytes 01:03:43.708
9 1:06:32.250 0:06:37.875 22,005 kbps 31,872 kbps 01:12:21.291 24,667 kbps 01:07:22.708 23,926 kbps 01:07:20.541 114,607 bytes 606,126 bytes 01:07:27.666
10 1:13:10.125 0:08:09.083 22,994 kbps 31,332 kbps 01:18:40.833 24,810 kbps 01:19:21.416 23,941 kbps 01:19:21.833 119,761 bytes 596,848 bytes 01:20:53.666
11 1:21:19.208 0:10:33.250 22,984 kbps 31,578 kbps 01:23:34.291 24,801 kbps 01:26:44.083 24,134 kbps 01:22:44.708 119,708 bytes 636,269 bytes 01:23:13.958
12 1:31:52.458 0:03:01.583 8,926 kbps 15,123 kbps 01:34:13.333 13,905 kbps 01:34:10.291 13,357 kbps 01:34:06.333 46,500 bytes 198,289 bytes 01:34:14.333
13 1:34:54.041 0:00:01.001 45 kbps 0 kbps 00:00:00.000 0 kbps 00:00:00.000 0 kbps 00:00:00.000 255 bytes 677 bytes 01:34:54.667

STREAM DIAGNOSTICS:

File PID Type Codec Language Seconds Bitrate Bytes Packets
---- --- ---- ----- -------- -------------- -------------- ------------- -----
00005.M2TS 4113 (0x1011) 0x1B AVC 5693.958 22,392 15,937,307,033 86,695,537
00005.M2TS 4352 (0x1100) 0x86 DTS-HD MA deu (German) 5693.958 1,431 1,018,288,200 6,086,316
00005.M2TS 4353 (0x1101) 0x86 DTS-HD MA rus (Russian) 5693.958 1,378 981,053,420 5,874,685
00005.M2TS 4608 (0x1200) 0x90 PGS deu (German) 5693.958 22 15,654,765 92,015
00005.M2TS 4609 (0x1201) 0x90 PGS deu (German) 5693.958 0 22,160 135
00013.M2TS 4113 (0x1011) 0x1B AVC 0.918 55 6,282 39
00013.M2TS 4352 (0x1100) 0x86 DTS-HD MA deu (German) 0.918 911 104,448 672
00013.M2TS 4353 (0x1101) 0x86 DTS-HD MA rus (Russian) 0.918 911 104,448 672
00013.M2TS 4608 (0x1200) 0x90 PGS deu (German) 0.918 48 5,476 35
00013.M2TS 4609 (0x1201) 0x90 PGS deu (German) 0.918 48 5,476 35

[/code]

QUICK SUMMARY:

Disc Title: O.Sexuelles.Verlangen.2017.DUAL.COMPLETE.BLURAY-UNiVERSUM
Disc Size: 21,205,496,389 bytes
Protection: AACS
Playlist: 01001.MPLS
Size: 19,008,626,688 bytes
Length: 1:34:55.042
Total Bitrate: 26.70 Mbps
Video: MPEG-4 AVC Video / 22388 kbps / 1080p / 24 fps / 16:9 / High Profile 4.1
Audio: German / DTS-HD Master Audio / 5.1 / 48 kHz / 1431 kbps / 16-bit (DTS Core: 5.1 / 48 kHz / 768 kbps / 16-bit)
Audio: Russian / DTS-HD Master Audio / 5.1 / 48 kHz / 1378 kbps / 16-bit (DTS Core: 5.1 / 48 kHz / 768 kbps / 16-bit)
Subtitle: German / 21.998 kbps
Subtitle: German / 0.039 kbps

********************
PLAYLIST: 00005.MPLS
********************

[code]
Total Video
Title Codec Length Movie Size Disc Size Bitrate Bitrate Main Audio Track Secondary Audio Track
----- ------ ------- -------------- -------------- ------- ------- ------------------ ---------------------
00005.MPLS AVC 1:34:54 19,008,331,776 21,205,496,389 26.71 22.39 DTS-HD Master 5.1 1431Kbps (48kHz/16-bit)
[/code]

[code]

DISC INFO:

Disc Title: O.Sexuelles.Verlangen.2017.DUAL.COMPLETE.BLURAY-UNiVERSUM
Disc Size: 21,205,496,389 bytes
Protection: AACS
Extras: 50Hz Content
BDInfo: 0.7.4.0

PLAYLIST REPORT:

Name: 00005.MPLS
Length: 1:34:54.041 (h:m:s.ms)
Size: 19,008,331,776 bytes
Total Bitrate: 26.71 Mbps

VIDEO:

Codec Bitrate Deion
----- ------- -----------
MPEG-4 AVC Video 22392 kbps 1080p / 24 fps / 16:9 / High Profile 4.1

AUDIO:

Codec Language Bitrate Deion
----- -------- ------- -----------
DTS-HD Master Audio German 1431 kbps 5.1 / 48 kHz / 1431 kbps / 16-bit (DTS Core: 5.1 / 48 kHz / 768 kbps / 16-bit)
DTS-HD Master Audio Russian 1378 kbps 5.1 / 48 kHz / 1378 kbps / 16-bit (DTS Core: 5.1 / 48 kHz / 768 kbps / 16-bit)

SUBTITLES:

Codec Language Bitrate Deion
----- -------- ------- -----------
Presentation Graphics German 21.995 kbps
Presentation Graphics German 0.031 kbps

FILES:

Name Time In Length Size Total Bitrate
---- ------- ------ ---- -------------
00005.M2TS 0:00:00.000 1:34:54.041 19,008,331,776 26,706

CHAPTERS:

Number Time In Length Avg Video Rate Max 1-Sec Rate Max 1-Sec Time Max 5-Sec Rate Max 5-Sec Time Max 10Sec Rate Max 10Sec Time Avg Frame Size Max Frame Size Max Frame Time
------ ------- ------ -------------- -------------- -------------- -------------- -------------- -------------- -------------- -------------- -------------- --------------
1 0:00:00.000 1:34:54.041 22,392 kbps 36,340 kbps 00:00:47.291 25,083 kbps 00:02:10.708 24,134 kbps 01:22:44.708 116,624 bytes 714,647 bytes 00:39:53.958

STREAM DIAGNOSTICS:

File PID Type Codec Language Seconds Bitrate Bytes Packets
---- --- ---- ----- -------- -------------- -------------- ------------- -----
00005.M2TS 4113 (0x1011) 0x1B AVC 5693.958 22,392 15,937,307,033 86,695,537
00005.M2TS 4352 (0x1100) 0x86 DTS-HD MA deu (German) 5693.958 1,431 1,018,288,200 6,086,316
00005.M2TS 4353 (0x1101) 0x86 DTS-HD MA rus (Russian) 5693.958 1,378 981,053,420 5,874,685
00005.M2TS 4608 (0x1200) 0x90 PGS deu (German) 5693.958 22 15,654,765 92,015
00005.M2TS 4609 (0x1201) 0x90 PGS deu (German) 5693.958 0 22,160 135

[/code]

QUICK SUMMARY:

Disc Title: O.Sexuelles.Verlangen.2017.DUAL.COMPLETE.BLURAY-UNiVERSUM
Disc Size: 21,205,496,389 bytes
Protection: AACS
Playlist: 00005.MPLS
Size: 19,008,331,776 bytes
Length: 1:34:54.041
Total Bitrate: 26.71 Mbps
Video: MPEG-4 AVC Video / 22392 kbps / 1080p / 24 fps / 16:9 / High Profile 4.1
Audio: German / DTS-HD Master Audio / 5.1 / 48 kHz / 1431 kbps / 16-bit (DTS Core: 5.1 / 48 kHz / 768 kbps / 16-bit)
Audio: Russian / DTS-HD Master Audio / 5.1 / 48 kHz / 1378 kbps / 16-bit (DTS Core: 5.1 / 48 kHz / 768 kbps / 16-bit)
Subtitle: German / 21.995 kbps
Subtitle: German / 0.031 kbps

********************
PLAYLIST: 01014.MPLS
********************

[code]
Total Video
Title Codec Length Movie Size Disc Size Bitrate Bitrate Main Audio Track Secondary Audio Track
----- ------ ------- -------------- -------------- ------- ------- ------------------ ---------------------
01014.MPLS MPEG-2 0:08:52 1,802,215,296 21,205,496,389 27.06 21.51 LPCM 2.0 1536Kbps (48kHz/16-bit) LPCM 2.0 1536Kbps (48kHz/16-bit)
[/code]

[code]

DISC INFO:

Disc Title: O.Sexuelles.Verlangen.2017.DUAL.COMPLETE.BLURAY-UNiVERSUM
Disc Size: 21,205,496,389 bytes
Protection: AACS
Extras: 50Hz Content
BDInfo: 0.7.4.0

PLAYLIST REPORT:

Name: 01014.MPLS
Length: 0:08:52.764 (h:m:s.ms)
Size: 1,802,215,296 bytes
Total Bitrate: 27.06 Mbps

VIDEO:

Codec Bitrate Deion
----- ------- -----------
MPEG-2 Video 21507 kbps 1080p / 23.976 fps / 16:9

AUDIO:

Codec Language Bitrate Deion
----- -------- ------- -----------
LPCM Audio German 1536 kbps 2.0 / 48 kHz / 1536 kbps / 16-bit
LPCM Audio German 1536 kbps 2.0 / 48 kHz / 1536 kbps / 16-bit

SUBTITLES:

Codec Language Bitrate Deion
----- -------- ------- -----------
Presentation Graphics German 0.577 kbps
Presentation Graphics German 0.577 kbps

FILES:

Name Time In Length Size Total Bitrate
---- ------- ------ ---- -------------
00008.M2TS 0:00:00.000 0:01:04.833 157,306,752 19,411
00009.M2TS 0:01:04.833 0:01:29.959 324,582,720 28,865
00010.M2TS 0:02:34.793 0:01:47.315 361,230,144 26,928
00011.M2TS 0:04:22.108 0:01:13.000 251,421,120 27,553
00012.M2TS 0:05:35.108 0:02:08.253 442,010,688 27,571
00015.M2TS 0:07:43.362 0:01:08.401 265,368,960 31,018
00013.M2TS 0:08:51.763 0:00:01.000 294,912 2,357

CHAPTERS:

Number Time In Length Avg Video Rate Max 1-Sec Rate Max 1-Sec Time Max 5-Sec Rate Max 5-Sec Time Max 10Sec Rate Max 10Sec Time Avg Frame Size Max Frame Size Max Frame Time
------ ------- ------ -------------- -------------- -------------- -------------- -------------- -------------- -------------- -------------- -------------- --------------
1 0:00:00.000 0:01:04.833 14,978 kbps 22,784 kbps 00:00:43.250 16,123 kbps 00:00:39.916 15,647 kbps 00:00:34.250 77,959 bytes 643,729 bytes 00:00:43.666
2 0:01:04.833 0:01:29.959 24,042 kbps 32,041 kbps 00:02:19.113 28,186 kbps 00:01:43.713 27,274 kbps 00:01:43.713 120,210 bytes 737,258 bytes 00:01:23.953
3 0:02:34.793 0:01:47.315 22,183 kbps 31,365 kbps 00:04:05.133 26,255 kbps 00:03:16.251 25,980 kbps 00:03:11.329 115,653 bytes 745,321 bytes 00:03:21.006
4 0:04:22.108 0:01:13.000 22,777 kbps 28,735 kbps 00:05:07.858 23,993 kbps 00:05:04.025 23,397 kbps 00:04:58.858 118,632 bytes 531,774 bytes 00:05:20.150
5 0:05:35.108 0:02:08.253 22,798 kbps 29,018 kbps 00:05:35.275 23,531 kbps 00:06:40.257 23,315 kbps 00:06:18.860 118,858 bytes 619,446 bytes 00:07:33.268
6 0:07:43.362 0:01:08.401 19,854 kbps 32,220 kbps 00:07:43.945 24,296 kbps 00:08:43.713 22,904 kbps 00:08:05.634 103,637 bytes 537,474 bytes 00:07:47.115
7 0:08:51.763 0:00:01.000 45 kbps 0 kbps 00:00:00.000 0 kbps 00:00:00.000 0 kbps 00:00:00.000 255 bytes 677 bytes 00:08:52.389

STREAM DIAGNOSTICS:

File PID Type Codec Language Seconds Bitrate Bytes Packets
---- --- ---- ----- -------- -------------- -------------- ------------- -----
00008.M2TS 4113 (0x1011) 0x02 MPEG-2 64.875 14,972 121,413,702 660,770
00008.M2TS 4352 (0x1100) 0x80 LPCM deu (German) 64.875 1,543 12,516,576 77,904
00008.M2TS 4353 (0x1101) 0x80 LPCM deu (German) 64.875 1,543 12,516,576 77,904
00008.M2TS 4608 (0x1200) 0x90 PGS deu (German) 64.875 1 5,492 37
00008.M2TS 4609 (0x1201) 0x90 PGS deu (German) 64.875 1 5,492 37
00009.M2TS 4113 (0x1011) 0x02 MPEG-2 90.000 24,032 270,356,823 1,470,641
00009.M2TS 4352 (0x1100) 0x80 LPCM deu (German) 90.000 1,543 17,359,712 108,048
00009.M2TS 4353 (0x1101) 0x80 LPCM deu (German) 90.000 1,543 17,359,712 108,048
00009.M2TS 4608 (0x1200) 0x90 PGS deu (German) 90.000 0 5,492 37
00009.M2TS 4609 (0x1201) 0x90 PGS deu (German) 90.000 0 5,492 37
00010.M2TS 4113 (0x1011) 0x02 MPEG-2 107.357 22,218 298,157,649 1,621,923
00010.M2TS 4352 (0x1100) 0x80 LPCM deu (German) 107.357 1,543 20,706,720 128,880
00010.M2TS 4353 (0x1101) 0x80 LPCM deu (German) 107.357 1,543 20,706,720 128,880
00010.M2TS 4608 (0x1200) 0x90 PGS deu (German) 107.357 0 5,492 37
00010.M2TS 4609 (0x1201) 0x90 PGS deu (German) 107.357 0 5,492 37
00011.M2TS 4113 (0x1011) 0x02 MPEG-2 73.000 22,802 208,070,152 1,131,764
00011.M2TS 4352 (0x1100) 0x80 LPCM deu (German) 73.000 1,544 14,090,788 87,702
00011.M2TS 4353 (0x1101) 0x80 LPCM deu (German) 73.000 1,544 14,090,788 87,702
00011.M2TS 4608 (0x1200) 0x90 PGS deu (German) 73.000 1 5,492 37
00011.M2TS 4609 (0x1201) 0x90 PGS deu (German) 73.000 1 5,492 37
00012.M2TS 4113 (0x1011) 0x02 MPEG-2 128.253 22,805 365,608,100 1,988,827
00012.M2TS 4352 (0x1100) 0x80 LPCM deu (German) 128.253 1,543 24,743,952 154,008
00012.M2TS 4353 (0x1101) 0x80 LPCM deu (German) 128.253 1,543 24,743,952 154,008
00012.M2TS 4608 (0x1200) 0x90 PGS deu (German) 128.253 0 5,492 37
00012.M2TS 4609 (0x1201) 0x90 PGS deu (German) 128.253 0 5,492 37
00015.M2TS 4113 (0x1011) 0x1B AVC 68.277 19,891 169,758,123 923,562
00015.M2TS 4352 (0x1100) 0x86 DTS-HD MA deu (German) 68.277 4,677 39,916,508 227,705
00015.M2TS 4353 (0x1101) 0x86 DTS-HD MA deu (German) 68.277 4,677 39,916,508 227,705
00015.M2TS 4608 (0x1200) 0x90 PGS deu (German) 68.277 1 5,492 37
00015.M2TS 4609 (0x1201) 0x90 PGS deu (German) 68.277 1 5,492 37
00013.M2TS 4113 (0x1011) 0x1B AVC 0.918 55 6,282 39
00013.M2TS 4352 (0x1100) 0x86 DTS-HD MA deu (German) 0.918 911 104,448 672
00013.M2TS 4353 (0x1101) 0x86 DTS-HD MA deu (German) 0.918 911 104,448 672
00013.M2TS 4608 (0x1200) 0x90 PGS deu (German) 0.918 48 5,476 35
00013.M2TS 4609 (0x1201) 0x90 PGS deu (German) 0.918 48 5,476 35

[/code]

QUICK SUMMARY:

Disc Title: O.Sexuelles.Verlangen.2017.DUAL.COMPLETE.BLURAY-UNiVERSUM
Disc Size: 21,205,496,389 bytes
Protection: AACS
Playlist: 01014.MPLS
Size: 1,802,215,296 bytes
Length: 0:08:52.764
Total Bitrate: 27.06 Mbps
Video: MPEG-2 Video / 21507 kbps / 1080p / 23.976 fps / 16:9
Audio: German / LPCM Audio / 2.0 / 48 kHz / 1536 kbps / 16-bit
Audio: German / LPCM Audio / 2.0 / 48 kHz / 1536 kbps / 16-bit
Subtitle: German / 0.577 kbps
Subtitle: German / 0.577 kbps

********************
PLAYLIST: 01016.MPLS
********************

[code]
Total Video
Title Codec Length Movie Size Disc Size Bitrate Bitrate Main Audio Track Secondary Audio Track
----- ------ ------- -------------- -------------- ------- ------- ------------------ ---------------------
01016.MPLS MPEG-2 0:02:43 576,298,752 21,205,496,389 28.12 23.33 LPCM 2.0 1536Kbps (48kHz/16-bit) LPCM 2.0 1536Kbps (48kHz/16-bit)
[/code]

[code]

DISC INFO:

Disc Title: O.Sexuelles.Verlangen.2017.DUAL.COMPLETE.BLURAY-UNiVERSUM
Disc Size: 21,205,496,389 bytes
Protection: AACS
Extras: 50Hz Content
BDInfo: 0.7.4.0

PLAYLIST REPORT:

Name: 01016.MPLS
Length: 0:02:43.960 (h:m:s.ms)
Size: 576,298,752 bytes
Total Bitrate: 28.12 Mbps

VIDEO:

Codec Bitrate Deion
----- ------- -----------
MPEG-2 Video 23332 kbps 1080i / 25 fps / 16:9

AUDIO:

Codec Language Bitrate Deion
----- -------- ------- -----------
LPCM Audio German 1536 kbps 2.0 / 48 kHz / 1536 kbps / 16-bit
LPCM Audio German 1536 kbps 2.0 / 48 kHz / 1536 kbps / 16-bit

SUBTITLES:

Codec Language Bitrate Deion
----- -------- ------- -----------
Presentation Graphics German 0.803 kbps
Presentation Graphics German 0.803 kbps

FILES:

Name Time In Length Size Total Bitrate
---- ------- ------ ---- -------------
00011.M2TS 0:00:00.000 0:01:13.000 251,421,120 27,553
00009.M2TS 0:01:13.000 0:01:29.959 324,582,720 28,865
00013.M2TS 0:02:42.959 0:00:01.000 294,912 2,357

CHAPTERS:

Number Time In Length Avg Video Rate Max 1-Sec Rate Max 1-Sec Time Max 5-Sec Rate Max 5-Sec Time Max 10Sec Rate Max 10Sec Time Avg Frame Size Max Frame Size Max Frame Time
------ ------- ------ -------------- -------------- -------------- -------------- -------------- -------------- -------------- -------------- -------------- --------------
1 0:00:00.000 0:01:13.000 22,783 kbps 28,735 kbps 00:00:45.750 23,993 kbps 00:00:41.916 23,397 kbps 00:00:36.750 118,592 bytes 531,774 bytes 00:00:58.041
2 0:01:13.000 0:01:29.959 24,036 kbps 32,041 kbps 00:02:27.280 28,186 kbps 00:01:51.880 27,274 kbps 00:01:51.880 120,182 bytes 737,258 bytes 00:01:32.120
3 0:02:42.959 0:00:01.001 45 kbps 0 kbps 00:00:00.000 0 kbps 00:00:00.000 0 kbps 00:00:00.000 255 bytes 677 bytes 00:02:43.585

STREAM DIAGNOSTICS:

File PID Type Codec Language Seconds Bitrate Bytes Packets
---- --- ---- ----- -------- -------------- -------------- ------------- -----
00011.M2TS 4113 (0x1011) 0x02 MPEG-2 73.000 22,802 208,070,152 1,131,764
00011.M2TS 4352 (0x1100) 0x80 LPCM deu (German) 73.000 1,544 14,090,788 87,702
00011.M2TS 4353 (0x1101) 0x80 LPCM deu (German) 73.000 1,544 14,090,788 87,702
00011.M2TS 4608 (0x1200) 0x90 PGS deu (German) 73.000 1 5,492 37
00011.M2TS 4609 (0x1201) 0x90 PGS deu (German) 73.000 1 5,492 37
00009.M2TS 4113 (0x1011) 0x02 MPEG-2 90.000 24,032 270,356,823 1,470,641
00009.M2TS 4352 (0x1100) 0x80 LPCM deu (German) 90.000 1,543 17,359,712 108,048
00009.M2TS 4353 (0x1101) 0x80 LPCM deu (German) 90.000 1,543 17,359,712 108,048
00009.M2TS 4608 (0x1200) 0x90 PGS deu (German) 90.000 0 5,492 37
00009.M2TS 4609 (0x1201) 0x90 PGS deu (German) 90.000 0 5,492 37
00013.M2TS 4113 (0x1011) 0x1B AVC 0.918 55 6,282 39
00013.M2TS 4352 (0x1100) 0x86 DTS-HD MA deu (German) 0.918 911 104,448 672
00013.M2TS 4353 (0x1101) 0x86 DTS-HD MA deu (German) 0.918 911 104,448 672
00013.M2TS 4608 (0x1200) 0x90 PGS deu (German) 0.918 48 5,476 35
00013.M2TS 4609 (0x1201) 0x90 PGS deu (German) 0.918 48 5,476 35

[/code]

QUICK SUMMARY:

Disc Title: O.Sexuelles.Verlangen.2017.DUAL.COMPLETE.BLURAY-UNiVERSUM
Disc Size: 21,205,496,389 bytes
Protection: AACS
Playlist: 01016.MPLS
Size: 576,298,752 bytes
Length: 0:02:43.960
Total Bitrate: 28.12 Mbps
Video: MPEG-2 Video / 23332 kbps / 1080i / 25 fps / 16:9
Audio: German / LPCM Audio / 2.0 / 48 kHz / 1536 kbps / 16-bit
Audio: German / LPCM Audio / 2.0 / 48 kHz / 1536 kbps / 16-bit
Subtitle: German / 0.803 kbps
Subtitle: German / 0.803 kbps

********************
PLAYLIST: 01004.MPLS
********************

[code]
Total Video
Title Codec Length Movie Size Disc Size Bitrate Bitrate Main Audio Track Secondary Audio Track
----- ------ ------- -------------- -------------- ------- ------- ------------------ ---------------------
01004.MPLS AVC 0:02:21 3,360,768 21,205,496,389 0.19 0.09 DTS-HD Master 2.0 6Kbps (48kHz/16-bit)
[/code]

[code]

DISC INFO:

Disc Title: O.Sexuelles.Verlangen.2017.DUAL.COMPLETE.BLURAY-UNiVERSUM
Disc Size: 21,205,496,389 bytes
Protection: AACS
Extras: 50Hz Content
BDInfo: 0.7.4.0

PLAYLIST REPORT:

Name: 01004.MPLS
Length: 0:02:21.182 (h:m:s.ms)
Size: 3,360,768 bytes
Total Bitrate: 0.19 Mbps

VIDEO:

Codec Bitrate Deion
----- ------- -----------
MPEG-4 AVC Video 92 kbps 1080p / 23.976 fps / 16:9 / High Profile 4.1

AUDIO:

Codec Language Bitrate Deion
----- -------- ------- -----------
DTS-HD Master Audio German 6 kbps 2.0 / 48 kHz / 6 kbps / 16-bit (DTS Core: 2.0 / 48 kHz / 768 kbps / 16-bit)
DTS-HD Master Audio English 6 kbps 2.0 / 48 kHz / 6 kbps / 16-bit (DTS Core: 2.0 / 48 kHz / 768 kbps / 16-bit)

SUBTITLES:

Codec Language Bitrate Deion
----- -------- ------- -----------
Presentation Graphics German 0.296 kbps
Presentation Graphics English 0.296 kbps

FILES:

Name Time In Length Size Total Bitrate
---- ------- ------ ---- -------------
00007.M2TS 0:00:00.000 0:02:20.181 3,065,856 167
00013.M2TS 0:02:20.181 0:00:01.000 294,912 2,357

CHAPTERS:

Number Time In Length Avg Video Rate Max 1-Sec Rate Max 1-Sec Time Max 5-Sec Rate Max 5-Sec Time Max 10Sec Rate Max 10Sec Time Avg Frame Size Max Frame Size Max Frame Time
------ ------- ------ -------------- -------------- -------------- -------------- -------------- -------------- -------------- -------------- -------------- --------------
1 0:00:00.000 0:00:06.965 129 kbps 0 kbps 00:00:00.000 0 kbps 00:00:00.000 0 kbps 00:00:00.000 111,909 bytes 111,909 bytes 00:00:06.965
2 0:00:06.965 0:00:06.965 130 kbps 130 kbps 00:00:06.965 130 kbps 00:00:06.965 0 kbps 00:00:00.000 113,557 bytes 113,557 bytes 00:00:13.972
3 0:00:13.930 0:00:06.965 112 kbps 111 kbps 00:00:13.972 111 kbps 00:00:13.972 0 kbps 00:00:00.000 97,585 bytes 97,585 bytes 00:00:20.979
4 0:00:20.895 0:00:06.965 107 kbps 106 kbps 00:00:20.979 106 kbps 00:00:20.979 0 kbps 00:00:00.000 93,272 bytes 93,272 bytes 00:00:27.986
5 0:00:27.861 0:00:06.965 81 kbps 80 kbps 00:00:27.986 80 kbps 00:00:27.986 0 kbps 00:00:00.000 70,463 bytes 70,463 bytes 00:00:34.993
6 0:00:34.826 0:00:06.965 116 kbps 116 kbps 00:00:34.993 116 kbps 00:00:34.993 0 kbps 00:00:00.000 101,205 bytes 101,205 bytes 00:00:42.000
7 0:00:41.791 0:00:06.965 104 kbps 104 kbps 00:00:42.000 104 kbps 00:00:42.000 0 kbps 00:00:00.000 90,862 bytes 90,862 bytes 00:00:49.007
8 0:00:48.757 0:00:06.965 95 kbps 94 kbps 00:00:49.007 94 kbps 00:00:49.007 0 kbps 00:00:00.000 82,745 bytes 82,745 bytes 00:00:56.014
9 0:00:55.722 0:00:06.965 57 kbps 57 kbps 00:00:56.014 57 kbps 00:00:56.014 0 kbps 00:00:00.000 49,912 bytes 49,912 bytes 00:01:03.021
10 0:01:02.687 0:00:06.965 88 kbps 87 kbps 00:01:03.021 87 kbps 00:01:03.021 0 kbps 00:00:00.000 76,468 bytes 76,468 bytes 00:01:10.028
11 0:01:09.652 0:00:06.965 94 kbps 93 kbps 00:01:10.028 93 kbps 00:01:10.028 0 kbps 00:00:00.000 81,562 bytes 81,562 bytes 00:01:17.035
12 0:01:16.618 0:00:06.965 115 kbps 114 kbps 00:01:17.035 114 kbps 00:01:17.035 0 kbps 00:00:00.000 99,854 bytes 99,854 bytes 00:01:24.042
13 0:01:23.583 0:00:06.965 87 kbps 87 kbps 00:01:24.042 87 kbps 00:01:24.042 0 kbps 00:00:00.000 75,799 bytes 75,799 bytes 00:01:31.049
14 0:01:30.548 0:00:06.965 81 kbps 80 kbps 00:01:31.049 80 kbps 00:01:31.049 0 kbps 00:00:00.000 70,155 bytes 70,155 bytes 00:01:38.056
15 0:01:37.514 0:00:06.965 91 kbps 91 kbps 00:01:38.056 91 kbps 00:01:38.056 0 kbps 00:00:00.000 79,635 bytes 79,635 bytes 00:01:45.063
16 0:01:44.479 0:00:06.965 121 kbps 120 kbps 00:01:45.063 120 kbps 00:01:45.063 0 kbps 00:00:00.000 105,335 bytes 105,335 bytes 00:01:52.070
17 0:01:51.444 0:00:06.965 102 kbps 102 kbps 00:01:52.070 102 kbps 00:01:52.070 0 kbps 00:00:00.000 89,072 bytes 89,072 bytes 00:01:59.077
18 0:01:58.409 0:00:06.965 76 kbps 76 kbps 00:01:59.077 76 kbps 00:01:59.077 0 kbps 00:00:00.000 66,388 bytes 66,388 bytes 00:02:06.084
19 0:02:05.375 0:00:06.965 84 kbps 83 kbps 00:02:06.084 83 kbps 00:02:06.084 0 kbps 00:00:00.000 72,904 bytes 72,904 bytes 00:02:13.091
20 0:02:12.340 0:00:06.965 80 kbps 79 kbps 00:02:13.091 79 kbps 00:02:13.091 0 kbps 00:00:00.000 69,584 bytes 69,584 bytes 00:02:20.098
21 0:02:19.305 0:00:00.875 11 kbps 0 kbps 00:00:00.000 0 kbps 00:00:00.000 0 kbps 00:00:00.000 612 bytes 674 bytes 00:02:20.181
22 0:02:20.181 0:00:01.001 45 kbps 0 kbps 00:00:00.000 0 kbps 00:00:00.000 0 kbps 00:00:00.000 255 bytes 677 bytes 00:02:20.807

STREAM DIAGNOSTICS:

File PID Type Codec Language Seconds Bitrate Bytes Packets
---- --- ---- ----- -------- -------------- -------------- ------------- -----
00007.M2TS 4113 (0x1011) 0x1B AVC 133.133 102 1,698,816 9,247
00013.M2TS 4113 (0x1011) 0x1B AVC 0.918 55 6,282 39
00013.M2TS 4352 (0x1100) 0x86 DTS-HD MA deu (German) 0.918 911 104,448 672
00013.M2TS 4353 (0x1101) 0x86 DTS-HD MA eng (English) 0.918 911 104,448 672
00013.M2TS 4608 (0x1200) 0x90 PGS deu (German) 0.918 48 5,476 35
00013.M2TS 4609 (0x1201) 0x90 PGS eng (English) 0.918 48 5,476 35

[/code]

QUICK SUMMARY:

Disc Title: O.Sexuelles.Verlangen.2017.DUAL.COMPLETE.BLURAY-UNiVERSUM
Disc Size: 21,205,496,389 bytes
Protection: AACS
Playlist: 01004.MPLS
Size: 3,360,768 bytes
Length: 0:02:21.182
Total Bitrate: 0.19 Mbps
Video: MPEG-4 AVC Video / 92 kbps / 1080p / 23.976 fps / 16:9 / High Profile 4.1
Audio: German / DTS-HD Master Audio / 2.0 / 48 kHz / 6 kbps / 16-bit (DTS Core: 2.0 / 48 kHz / 768 kbps / 16-bit)
Audio: English / DTS-HD Master Audio / 2.0 / 48 kHz / 6 kbps / 16-bit (DTS Core: 2.0 / 48 kHz / 768 kbps / 16-bit)
Subtitle: German / 0.296 kbps
Subtitle: English / 0.296 kbps

********************
PLAYLIST: 00007.MPLS
********************

[code]
Total Video
Title Codec Length Movie Size Disc Size Bitrate Bitrate Main Audio Track Secondary Audio Track
----- ------ ------- -------------- -------------- ------- ------- ------------------ ---------------------
00007.MPLS AVC 0:02:20 3,065,856 21,205,496,389 0.17 0.09
[/code]

[code]

DISC INFO:

Disc Title: O.Sexuelles.Verlangen.2017.DUAL.COMPLETE.BLURAY-UNiVERSUM
Disc Size: 21,205,496,389 bytes
Protection: AACS
Extras: 50Hz Content
BDInfo: 0.7.4.0

PLAYLIST REPORT:

Name: 00007.MPLS
Length: 0:02:20.181 (h:m:s.ms)
Size: 3,065,856 bytes
Total Bitrate: 0.17 Mbps

VIDEO:

Codec Bitrate Deion
----- ------- -----------
MPEG-4 AVC Video 92 kbps 1080p / 23.976 fps / 16:9 / High Profile 4.0

FILES:

Name Time In Length Size Total Bitrate
---- ------- ------ ---- -------------
00007.M2TS 0:00:00.000 0:02:20.181 3,065,856 167

CHAPTERS:

Number Time In Length Avg Video Rate Max 1-Sec Rate Max 1-Sec Time Max 5-Sec Rate Max 5-Sec Time Max 10Sec Rate Max 10Sec Time Avg Frame Size Max Frame Size Max Frame Time
------ ------- ------ -------------- -------------- -------------- -------------- -------------- -------------- -------------- -------------- -------------- --------------
1 0:00:00.000 0:00:06.965 129 kbps 0 kbps 00:00:00.000 0 kbps 00:00:00.000 0 kbps 00:00:00.000 111,909 bytes 111,909 bytes 00:00:06.965
2 0:00:06.965 0:00:06.965 130 kbps 130 kbps 00:00:06.965 130 kbps 00:00:06.965 0 kbps 00:00:00.000 113,557 bytes 113,557 bytes 00:00:13.972
3 0:00:13.930 0:00:06.965 112 kbps 111 kbps 00:00:13.972 111 kbps 00:00:13.972 0 kbps 00:00:00.000 97,585 bytes 97,585 bytes 00:00:20.979
4 0:00:20.895 0:00:06.965 107 kbps 106 kbps 00:00:20.979 106 kbps 00:00:20.979 0 kbps 00:00:00.000 93,272 bytes 93,272 bytes 00:00:27.986
5 0:00:27.861 0:00:06.965 81 kbps 80 kbps 00:00:27.986 80 kbps 00:00:27.986 0 kbps 00:00:00.000 70,463 bytes 70,463 bytes 00:00:34.993
6 0:00:34.826 0:00:06.965 116 kbps 116 kbps 00:00:34.993 116 kbps 00:00:34.993 0 kbps 00:00:00.000 101,205 bytes 101,205 bytes 00:00:42.000
7 0:00:41.791 0:00:06.965 104 kbps 104 kbps 00:00:42.000 104 kbps 00:00:42.000 0 kbps 00:00:00.000 90,862 bytes 90,862 bytes 00:00:49.007
8 0:00:48.757 0:00:06.965 95 kbps 94 kbps 00:00:49.007 94 kbps 00:00:49.007 0 kbps 00:00:00.000 82,745 bytes 82,745 bytes 00:00:56.014
9 0:00:55.722 0:00:06.965 57 kbps 57 kbps 00:00:56.014 57 kbps 00:00:56.014 0 kbps 00:00:00.000 49,912 bytes 49,912 bytes 00:01:03.021
10 0:01:02.687 0:00:06.965 88 kbps 87 kbps 00:01:03.021 87 kbps 00:01:03.021 0 kbps 00:00:00.000 76,468 bytes 76,468 bytes 00:01:10.028
11 0:01:09.652 0:00:06.965 94 kbps 93 kbps 00:01:10.028 93 kbps 00:01:10.028 0 kbps 00:00:00.000 81,562 bytes 81,562 bytes 00:01:17.035
12 0:01:16.618 0:00:06.965 115 kbps 114 kbps 00:01:17.035 114 kbps 00:01:17.035 0 kbps 00:00:00.000 99,854 bytes 99,854 bytes 00:01:24.042
13 0:01:23.583 0:00:06.965 87 kbps 87 kbps 00:01:24.042 87 kbps 00:01:24.042 0 kbps 00:00:00.000 75,799 bytes 75,799 bytes 00:01:31.049
14 0:01:30.548 0:00:06.965 81 kbps 80 kbps 00:01:31.049 80 kbps 00:01:31.049 0 kbps 00:00:00.000 70,155 bytes 70,155 bytes 00:01:38.056
15 0:01:37.514 0:00:06.965 91 kbps 91 kbps 00:01:38.056 91 kbps 00:01:38.056 0 kbps 00:00:00.000 79,635 bytes 79,635 bytes 00:01:45.063
16 0:01:44.479 0:00:06.965 121 kbps 120 kbps 00:01:45.063 120 kbps 00:01:45.063 0 kbps 00:00:00.000 105,335 bytes 105,335 bytes 00:01:52.070
17 0:01:51.444 0:00:06.965 102 kbps 102 kbps 00:01:52.070 102 kbps 00:01:52.070 0 kbps 00:00:00.000 89,072 bytes 89,072 bytes 00:01:59.077
18 0:01:58.409 0:00:06.965 76 kbps 76 kbps 00:01:59.077 76 kbps 00:01:59.077 0 kbps 00:00:00.000 66,388 bytes 66,388 bytes 00:02:06.084
19 0:02:05.375 0:00:06.965 84 kbps 83 kbps 00:02:06.084 83 kbps 00:02:06.084 0 kbps 00:00:00.000 72,904 bytes 72,904 bytes 00:02:13.091
20 0:02:12.340 0:00:07.841 72 kbps 79 kbps 00:02:13.091 79 kbps 00:02:13.091 0 kbps 00:00:00.000 35,067 bytes 69,584 bytes 00:02:20.098

STREAM DIAGNOSTICS:

File PID Type Codec Language Seconds Bitrate Bytes Packets
---- --- ---- ----- -------- -------------- -------------- ------------- -----
00007.M2TS 4113 (0x1011) 0x1B AVC 133.133 102 1,698,816 9,247

[/code]

QUICK SUMMARY:

Disc Title: O.Sexuelles.Verlangen.2017.DUAL.COMPLETE.BLURAY-UNiVERSUM
Disc Size: 21,205,496,389 bytes
Protection: AACS
Playlist: 00007.MPLS
Size: 3,065,856 bytes
Length: 0:02:20.181
Total Bitrate: 0.17 Mbps
Video: MPEG-4 AVC Video / 92 kbps / 1080p / 23.976 fps / 16:9 / High Profile 4.0

********************
PLAYLIST: 01010.MPLS
********************

[code]
Total Video
Title Codec Length Movie Size Disc Size Bitrate Bitrate Main Audio Track Secondary Audio Track
----- ------ ------- -------------- -------------- ------- ------- ------------------ ---------------------
01010.MPLS MPEG-2 0:02:09 442,305,600 21,205,496,389 27.38 22.62 LPCM 2.0 1536Kbps (48kHz/16-bit) LPCM 2.0 1536Kbps (48kHz/16-bit)
[/code]

[code]

DISC INFO:

Disc Title: O.Sexuelles.Verlangen.2017.DUAL.COMPLETE.BLURAY-UNiVERSUM
Disc Size: 21,205,496,389 bytes
Protection: AACS
Extras: 50Hz Content
BDInfo: 0.7.4.0

PLAYLIST REPORT:

Name: 01010.MPLS
Length: 0:02:09.254 (h:m:s.ms)
Size: 442,305,600 bytes
Total Bitrate: 27.38 Mbps

VIDEO:

Codec Bitrate Deion
----- ------- -----------
MPEG-2 Video 22623 kbps 1080p / 23.976 fps / 16:9

AUDIO:

Codec Language Bitrate Deion
----- -------- ------- -----------
LPCM Audio German 1536 kbps 2.0 / 48 kHz / 1536 kbps / 16-bit
LPCM Audio German 1536 kbps 2.0 / 48 kHz / 1536 kbps / 16-bit

SUBTITLES:

Codec Language Bitrate Deion
----- -------- ------- -----------
Presentation Graphics German 0.679 kbps
Presentation Graphics German 0.679 kbps

FILES:

Name Time In Length Size Total Bitrate
---- ------- ------ ---- -------------
00012.M2TS 0:00:00.000 0:02:08.253 442,010,688 27,571
00013.M2TS 0:02:08.253 0:00:01.000 294,912 2,357

CHAPTERS:

Number Time In Length Avg Video Rate Max 1-Sec Rate Max 1-Sec Time Max 5-Sec Rate Max 5-Sec Time Max 10Sec Rate Max 10Sec Time Avg Frame Size Max Frame Size Max Frame Time
------ ------- ------ -------------- -------------- -------------- -------------- -------------- -------------- -------------- -------------- -------------- --------------
1 0:00:00.000 0:02:08.253 22,800 kbps 29,018 kbps 00:00:00.166 23,531 kbps 00:01:05.148 23,315 kbps 00:00:43.752 118,828 bytes 619,446 bytes 00:01:58.159
2 0:02:08.253 0:00:01.001 45 kbps 0 kbps 00:00:00.000 0 kbps 00:00:00.000 0 kbps 00:00:00.000 255 bytes 677 bytes 00:02:08.878

STREAM DIAGNOSTICS:

File PID Type Codec Language Seconds Bitrate Bytes Packets
---- --- ---- ----- -------- -------------- -------------- ------------- -----
00012.M2TS 4113 (0x1011) 0x02 MPEG-2 128.253 22,805 365,608,100 1,988,827
00012.M2TS 4352 (0x1100) 0x80 LPCM deu (German) 128.253 1,543 24,743,952 154,008
00012.M2TS 4353 (0x1101) 0x80 LPCM deu (German) 128.253 1,543 24,743,952 154,008
00012.M2TS 4608 (0x1200) 0x90 PGS deu (German) 128.253 0 5,492 37
00012.M2TS 4609 (0x1201) 0x90 PGS deu (German) 128.253 0 5,492 37
00013.M2TS 4113 (0x1011) 0x1B AVC 0.918 55 6,282 39
00013.M2TS 4352 (0x1100) 0x86 DTS-HD MA deu (German) 0.918 911 104,448 672
00013.M2TS 4353 (0x1101) 0x86 DTS-HD MA deu (German) 0.918 911 104,448 672
00013.M2TS 4608 (0x1200) 0x90 PGS deu (German) 0.918 48 5,476 35
00013.M2TS 4609 (0x1201) 0x90 PGS deu (German) 0.918 48 5,476 35

[/code]

QUICK SUMMARY:

Disc Title: O.Sexuelles.Verlangen.2017.DUAL.COMPLETE.BLURAY-UNiVERSUM
Disc Size: 21,205,496,389 bytes
Protection: AACS
Playlist: 01010.MPLS
Size: 442,305,600 bytes
Length: 0:02:09.254
Total Bitrate: 27.38 Mbps
Video: MPEG-2 Video / 22623 kbps / 1080p / 23.976 fps / 16:9
Audio: German / LPCM Audio / 2.0 / 48 kHz / 1536 kbps / 16-bit
Audio: German / LPCM Audio / 2.0 / 48 kHz / 1536 kbps / 16-bit
Subtitle: German / 0.679 kbps
Subtitle: German / 0.679 kbps

********************
PLAYLIST: 00012.MPLS
********************

[code]
Total Video
Title Codec Length Movie Size Disc Size Bitrate Bitrate Main Audio Track Secondary Audio Track
----- ------ ------- -------------- -------------- ------- ------- ------------------ ---------------------
00012.MPLS MPEG-2 0:02:08 442,010,688 21,205,496,389 27.57 22.80 LPCM 2.0 1536Kbps (48kHz/16-bit) LPCM 2.0 1536Kbps (48kHz/16-bit)
[/code]

[code]

DISC INFO:

Disc Title: O.Sexuelles.Verlangen.2017.DUAL.COMPLETE.BLURAY-UNiVERSUM
Disc Size: 21,205,496,389 bytes
Protection: AACS
Extras: 50Hz Content
BDInfo: 0.7.4.0

PLAYLIST REPORT:

Name: 00012.MPLS
Length: 0:02:08.253 (h:m:s.ms)
Size: 442,010,688 bytes
Total Bitrate: 27.57 Mbps

VIDEO:

Codec Bitrate Deion
----- ------- -----------
MPEG-2 Video 22800 kbps 1080p / 23.976 fps / 16:9

AUDIO:

Codec Language Bitrate Deion
----- -------- ------- -----------
LPCM Audio German 1536 kbps 2.0 / 48 kHz / 1536 kbps / 16-bit
LPCM Audio German 1536 kbps 2.0 / 48 kHz / 1536 kbps / 16-bit

SUBTITLES:

Codec Language Bitrate Deion
----- -------- ------- -----------
Presentation Graphics German 0.343 kbps
Presentation Graphics German 0.343 kbps

FILES:

Name Time In Length Size Total Bitrate
---- ------- ------ ---- -------------
00012.M2TS 0:00:00.000 0:02:08.253 442,010,688 27,571

CHAPTERS:

Number Time In Length Avg Video Rate Max 1-Sec Rate Max 1-Sec Time Max 5-Sec Rate Max 5-Sec Time Max 10Sec Rate Max 10Sec Time Avg Frame Size Max Frame Size Max Frame Time
------ ------- ------ -------------- -------------- -------------- -------------- -------------- -------------- -------------- -------------- -------------- --------------
1 0:00:00.000 0:02:08.253 22,800 kbps 29,018 kbps 00:00:00.166 23,531 kbps 00:01:05.148 23,315 kbps 00:00:43.752 118,866 bytes 619,446 bytes 00:01:58.159

STREAM DIAGNOSTICS:

File PID Type Codec Language Seconds Bitrate Bytes Packets
---- --- ---- ----- -------- -------------- -------------- ------------- -----
00012.M2TS 4113 (0x1011) 0x02 MPEG-2 128.253 22,805 365,608,100 1,988,827
00012.M2TS 4352 (0x1100) 0x80 LPCM deu (German) 128.253 1,543 24,743,952 154,008
00012.M2TS 4353 (0x1101) 0x80 LPCM deu (German) 128.253 1,543 24,743,952 154,008
00012.M2TS 4608 (0x1200) 0x90 PGS deu (German) 128.253 0 5,492 37
00012.M2TS 4609 (0x1201) 0x90 PGS deu (German) 128.253 0 5,492 37

[/code]

QUICK SUMMARY:

Disc Title: O.Sexuelles.Verlangen.2017.DUAL.COMPLETE.BLURAY-UNiVERSUM
Disc Size: 21,205,496,389 bytes
Protection: AACS
Playlist: 00012.MPLS
Size: 442,010,688 bytes
Length: 0:02:08.253
Total Bitrate: 27.57 Mbps
Video: MPEG-2 Video / 22800 kbps / 1080p / 23.976 fps / 16:9
Audio: German / LPCM Audio / 2.0 / 48 kHz / 1536 kbps / 16-bit
Audio: German / LPCM Audio / 2.0 / 48 kHz / 1536 kbps / 16-bit
Subtitle: German / 0.343 kbps
Subtitle: German / 0.343 kbps

********************
PLAYLIST: 01008.MPLS
********************

[code]
Total Video
Title Codec Length Movie Size Disc Size Bitrate Bitrate Main Audio Track Secondary Audio Track
----- ------ ------- -------------- -------------- ------- ------- ------------------ ---------------------
01008.MPLS MPEG-2 0:01:48 361,525,056 21,205,496,389 26.70 21.98 LPCM 2.0 1536Kbps (48kHz/16-bit) LPCM 2.0 1536Kbps (48kHz/16-bit)
[/code]

[code]

DISC INFO:

Disc Title: O.Sexuelles.Verlangen.2017.DUAL.COMPLETE.BLURAY-UNiVERSUM
Disc Size: 21,205,496,389 bytes
Protection: AACS
Extras: 50Hz Content
BDInfo: 0.7.4.0

PLAYLIST REPORT:

Name: 01008.MPLS
Length: 0:01:48.316 (h:m:s.ms)
Size: 361,525,056 bytes
Total Bitrate: 26.70 Mbps

VIDEO:

Codec Bitrate Deion
----- ------- -----------
MPEG-2 Video 21979 kbps 1080p / 23.976 fps / 16:9

AUDIO:

Codec Language Bitrate Deion
----- -------- ------- -----------
LPCM Audio German 1536 kbps 2.0 / 48 kHz / 1536 kbps / 16-bit
LPCM Audio German 1536 kbps 2.0 / 48 kHz / 1536 kbps / 16-bit

SUBTITLES:

Codec Language Bitrate Deion
----- -------- ------- -----------
Presentation Graphics German 0.810 kbps
Presentation Graphics German 0.810 kbps

FILES:

Name Time In Length Size Total Bitrate
---- ------- ------ ---- -------------
00010.M2TS 0:00:00.000 0:01:47.315 361,230,144 26,928
00013.M2TS 0:01:47.315 0:00:01.000 294,912 2,357

CHAPTERS:

Number Time In Length Avg Video Rate Max 1-Sec Rate Max 1-Sec Time Max 5-Sec Rate Max 5-Sec Time Max 10Sec Rate Max 10Sec Time Avg Frame Size Max Frame Size Max Frame Time
------ ------- ------ -------------- -------------- -------------- -------------- -------------- -------------- -------------- -------------- -------------- --------------
1 0:00:00.000 0:01:47.315 22,183 kbps 31,365 kbps 00:01:30.340 26,255 kbps 00:00:41.458 25,980 kbps 00:00:36.536 115,609 bytes 745,321 bytes 00:00:46.212
2 0:01:47.315 0:00:01.001 45 kbps 0 kbps 00:00:00.000 0 kbps 00:00:00.000 0 kbps 00:00:00.000 255 bytes 677 bytes 00:01:47.941

STREAM DIAGNOSTICS:

File PID Type Codec Language Seconds Bitrate Bytes Packets
---- --- ---- ----- -------- -------------- -------------- ------------- -----
00010.M2TS 4113 (0x1011) 0x02 MPEG-2 107.357 22,218 298,157,649 1,621,923
00010.M2TS 4352 (0x1100) 0x80 LPCM deu (German) 107.357 1,543 20,706,720 128,880
00010.M2TS 4353 (0x1101) 0x80 LPCM deu (German) 107.357 1,543 20,706,720 128,880
00010.M2TS 4608 (0x1200) 0x90 PGS deu (German) 107.357 0 5,492 37
00010.M2TS 4609 (0x1201) 0x90 PGS deu (German) 107.357 0 5,492 37
00013.M2TS 4113 (0x1011) 0x1B AVC 0.918 55 6,282 39
00013.M2TS 4352 (0x1100) 0x86 DTS-HD MA deu (German) 0.918 911 104,448 672
00013.M2TS 4353 (0x1101) 0x86 DTS-HD MA deu (German) 0.918 911 104,448 672
00013.M2TS 4608 (0x1200) 0x90 PGS deu (German) 0.918 48 5,476 35
00013.M2TS 4609 (0x1201) 0x90 PGS deu (German) 0.918 48 5,476 35

[/code]

QUICK SUMMARY:

Disc Title: O.Sexuelles.Verlangen.2017.DUAL.COMPLETE.BLURAY-UNiVERSUM
Disc Size: 21,205,496,389 bytes
Protection: AACS
Playlist: 01008.MPLS
Size: 361,525,056 bytes
Length: 0:01:48.316
Total Bitrate: 26.70 Mbps
Video: MPEG-2 Video / 21979 kbps / 1080p / 23.976 fps / 16:9
Audio: German / LPCM Audio / 2.0 / 48 kHz / 1536 kbps / 16-bit
Audio: German / LPCM Audio / 2.0 / 48 kHz / 1536 kbps / 16-bit
Subtitle: German / 0.810 kbps
Subtitle: German / 0.810 kbps

********************
PLAYLIST: 00010.MPLS
********************

[code]
Total Video
Title Codec Length Movie Size Disc Size Bitrate Bitrate Main Audio Track Secondary Audio Track
----- ------ ------- -------------- -------------- ------- ------- ------------------ ---------------------
00010.MPLS MPEG-2 0:01:47 361,230,144 21,205,496,389 26.93 22.18 LPCM 2.0 1536Kbps (48kHz/16-bit) LPCM 2.0 1536Kbps (48kHz/16-bit)
[/code]

[code]

DISC INFO:

Disc Title: O.Sexuelles.Verlangen.2017.DUAL.COMPLETE.BLURAY-UNiVERSUM
Disc Size: 21,205,496,389 bytes
Protection: AACS
Extras: 50Hz Content
BDInfo: 0.7.4.0

PLAYLIST REPORT:

Name: 00010.MPLS
Length: 0:01:47.315 (h:m:s.ms)
Size: 361,230,144 bytes
Total Bitrate: 26.93 Mbps

VIDEO:

Codec Bitrate Deion
----- ------- -----------
MPEG-2 Video 22183 kbps 1080p / 23.976 fps / 16:9

AUDIO:

Codec Language Bitrate Deion
----- -------- ------- -----------
LPCM Audio German 1536 kbps 2.0 / 48 kHz / 1536 kbps / 16-bit
LPCM Audio German 1536 kbps 2.0 / 48 kHz / 1536 kbps / 16-bit

SUBTITLES:

Codec Language Bitrate Deion
----- -------- ------- -----------
Presentation Graphics German 0.409 kbps
Presentation Graphics German 0.409 kbps

FILES:

Name Time In Length Size Total Bitrate
---- ------- ------ ---- -------------
00010.M2TS 0:00:00.000 0:01:47.315 361,230,144 26,928

CHAPTERS:

Number Time In Length Avg Video Rate Max 1-Sec Rate Max 1-Sec Time Max 5-Sec Rate Max 5-Sec Time Max 10Sec Rate Max 10Sec Time Avg Frame Size Max Frame Size Max Frame Time
------ ------- ------ -------------- -------------- -------------- -------------- -------------- -------------- -------------- -------------- -------------- --------------
1 0:00:00.000 0:01:47.315 22,183 kbps 31,365 kbps 00:01:30.340 26,255 kbps 00:00:41.458 25,980 kbps 00:00:36.536 115,653 bytes 745,321 bytes 00:00:46.212

STREAM DIAGNOSTICS:

File PID Type Codec Language Seconds Bitrate Bytes Packets
---- --- ---- ----- -------- -------------- -------------- ------------- -----
00010.M2TS 4113 (0x1011) 0x02 MPEG-2 107.357 22,218 298,157,649 1,621,923
00010.M2TS 4352 (0x1100) 0x80 LPCM deu (German) 107.357 1,543 20,706,720 128,880
00010.M2TS 4353 (0x1101) 0x80 LPCM deu (German) 107.357 1,543 20,706,720 128,880
00010.M2TS 4608 (0x1200) 0x90 PGS deu (German) 107.357 0 5,492 37
00010.M2TS 4609 (0x1201) 0x90 PGS deu (German) 107.357 0 5,492 37

[/code]

QUICK SUMMARY:

Disc Title: O.Sexuelles.Verlangen.2017.DUAL.COMPLETE.BLURAY-UNiVERSUM
Disc Size: 21,205,496,389 bytes
Protection: AACS
Playlist: 00010.MPLS
Size: 361,230,144 bytes
Length: 0:01:47.315
Total Bitrate: 26.93 Mbps
Video: MPEG-2 Video / 22183 kbps / 1080p / 23.976 fps / 16:9
Audio: German / LPCM Audio / 2.0 / 48 kHz / 1536 kbps / 16-bit
Audio: German / LPCM Audio / 2.0 / 48 kHz / 1536 kbps / 16-bit
Subtitle: German / 0.409 kbps
Subtitle: German / 0.409 kbps

********************
PLAYLIST: 01006.MPLS
********************

[code]
Total Video
Title Codec Length Movie Size Disc Size Bitrate Bitrate Main Audio Track Secondary Audio Track
----- ------ ------- -------------- -------------- ------- ------- ------------------ ---------------------
01006.MPLS MPEG-2 0:01:30 324,877,632 21,205,496,389 28.57 23.77 LPCM 2.0 1536Kbps (48kHz/16-bit) LPCM 2.0 1536Kbps (48kHz/16-bit)
[/code]

[code]

DISC INFO:

Disc Title: O.Sexuelles.Verlangen.2017.DUAL.COMPLETE.BLURAY-UNiVERSUM
Disc Size: 21,205,496,389 bytes
Protection: AACS
Extras: 50Hz Content
BDInfo: 0.7.4.0

PLAYLIST REPORT:

Name: 01006.MPLS
Length: 0:01:30.961 (h:m:s.ms)
Size: 324,877,632 bytes
Total Bitrate: 28.57 Mbps

VIDEO:

Codec Bitrate Deion
----- ------- -----------
MPEG-2 Video 23773 kbps 1080i / 25 fps / 16:9

AUDIO:

Codec Language Bitrate Deion
----- -------- ------- -----------
LPCM Audio German 1536 kbps 2.0 / 48 kHz / 1536 kbps / 16-bit
LPCM Audio German 1536 kbps 2.0 / 48 kHz / 1536 kbps / 16-bit

SUBTITLES:

Codec Language Bitrate Deion
----- -------- ------- -----------
Presentation Graphics German 0.965 kbps
Presentation Graphics German 0.965 kbps

FILES:

Name Time In Length Size Total Bitrate
---- ------- ------ ---- -------------
00009.M2TS 0:00:00.000 0:01:29.959 324,582,720 28,865
00013.M2TS 0:01:29.959 0:00:01.000 294,912 2,357

CHAPTERS:

Number Time In Length Avg Video Rate Max 1-Sec Rate Max 1-Sec Time Max 5-Sec Rate Max 5-Sec Time Max 10Sec Rate Max 10Sec Time Avg Frame Size Max Frame Size Max Frame Time
------ ------- ------ -------------- -------------- -------------- -------------- -------------- -------------- -------------- -------------- -------------- --------------
1 0:00:00.000 0:01:29.959 24,037 kbps 32,041 kbps 00:01:14.280 28,186 kbps 00:00:38.879 27,274 kbps 00:00:38.880 120,134 bytes 737,258 bytes 00:00:19.119
2 0:01:29.959 0:00:01.001 45 kbps 0 kbps 00:00:00.000 0 kbps 00:00:00.000 0 kbps 00:00:00.000 255 bytes 677 bytes 00:01:30.585

STREAM DIAGNOSTICS:

File PID Type Codec Language Seconds Bitrate Bytes Packets
---- --- ---- ----- -------- -------------- -------------- ------------- -----
00009.M2TS 4113 (0x1011) 0x02 MPEG-2 90.000 24,032 270,356,823 1,470,641
00009.M2TS 4352 (0x1100) 0x80 LPCM deu (German) 90.000 1,543 17,359,712 108,048
00009.M2TS 4353 (0x1101) 0x80 LPCM deu (German) 90.000 1,543 17,359,712 108,048
00009.M2TS 4608 (0x1200) 0x90 PGS deu (German) 90.000 0 5,492 37
00009.M2TS 4609 (0x1201) 0x90 PGS deu (German) 90.000 0 5,492 37
00013.M2TS 4113 (0x1011) 0x1B AVC 0.918 55 6,282 39
00013.M2TS 4352 (0x1100) 0x86 DTS-HD MA deu (German) 0.918 911 104,448 672
00013.M2TS 4353 (0x1101) 0x86 DTS-HD MA deu (German) 0.918 911 104,448 672
00013.M2TS 4608 (0x1200) 0x90 PGS deu (German) 0.918 48 5,476 35
00013.M2TS 4609 (0x1201) 0x90 PGS deu (German) 0.918 48 5,476 35

[/code]

QUICK SUMMARY:

Disc Title: O.Sexuelles.Verlangen.2017.DUAL.COMPLETE.BLURAY-UNiVERSUM
Disc Size: 21,205,496,389 bytes
Protection: AACS
Playlist: 01006.MPLS
Size: 324,877,632 bytes
Length: 0:01:30.961
Total Bitrate: 28.57 Mbps
Video: MPEG-2 Video / 23773 kbps / 1080i / 25 fps / 16:9
Audio: German / LPCM Audio / 2.0 / 48 kHz / 1536 kbps / 16-bit
Audio: German / LPCM Audio / 2.0 / 48 kHz / 1536 kbps / 16-bit
Subtitle: German / 0.965 kbps
Subtitle: German / 0.965 kbps

********************
PLAYLIST: 00009.MPLS
********************

[code]
Total Video
Title Codec Length Movie Size Disc Size Bitrate Bitrate Main Audio Track Secondary Audio Track
----- ------ ------- -------------- -------------- ------- ------- ------------------ ---------------------
00009.MPLS MPEG-2 0:01:29 324,582,720 21,205,496,389 28.86 24.04 LPCM 2.0 1536Kbps (48kHz/16-bit) LPCM 2.0 1536Kbps (48kHz/16-bit)
[/code]

[code]

DISC INFO:

Disc Title: O.Sexuelles.Verlangen.2017.DUAL.COMPLETE.BLURAY-UNiVERSUM
Disc Size: 21,205,496,389 bytes
Protection: AACS
Extras: 50Hz Content
BDInfo: 0.7.4.0

PLAYLIST REPORT:

Name: 00009.MPLS
Length: 0:01:29.959 (h:m:s.ms)
Size: 324,582,720 bytes
Total Bitrate: 28.86 Mbps

VIDEO:

Codec Bitrate Deion
----- ------- -----------
MPEG-2 Video 24037 kbps 1080i / 25 fps / 16:9

AUDIO:

Codec Language Bitrate Deion
----- -------- ------- -----------
LPCM Audio German 1536 kbps 2.0 / 48 kHz / 1536 kbps / 16-bit
LPCM Audio German 1536 kbps 2.0 / 48 kHz / 1536 kbps / 16-bit

SUBTITLES:

Codec Language Bitrate Deion
----- -------- ------- -----------
Presentation Graphics German 0.488 kbps
Presentation Graphics German 0.488 kbps

FILES:

Name Time In Length Size Total Bitrate
---- ------- ------ ---- -------------
00009.M2TS 0:00:00.000 0:01:29.959 324,582,720 28,865

CHAPTERS:

Number Time In Length Avg Video Rate Max 1-Sec Rate Max 1-Sec Time Max 5-Sec Rate Max 5-Sec Time Max 10Sec Rate Max 10Sec Time Avg Frame Size Max Frame Size Max Frame Time
------ ------- ------ -------------- -------------- -------------- -------------- -------------- -------------- -------------- -------------- -------------- --------------
1 0:00:00.000 0:01:29.959 24,037 kbps 32,041 kbps 00:01:14.280 28,186 kbps 00:00:38.879 27,274 kbps 00:00:38.880 120,187 bytes 737,258 bytes 00:00:19.119

STREAM DIAGNOSTICS:

File PID Type Codec Language Seconds Bitrate Bytes Packets
---- --- ---- ----- -------- -------------- -------------- ------------- -----
00009.M2TS 4113 (0x1011) 0x02 MPEG-2 90.000 24,032 270,356,823 1,470,641
00009.M2TS 4352 (0x1100) 0x80 LPCM deu (German) 90.000 1,543 17,359,712 108,048
00009.M2TS 4353 (0x1101) 0x80 LPCM deu (German) 90.000 1,543 17,359,712 108,048
00009.M2TS 4608 (0x1200) 0x90 PGS deu (German) 90.000 0 5,492 37
00009.M2TS 4609 (0x1201) 0x90 PGS deu (German) 90.000 0 5,492 37

[/code]

QUICK SUMMARY:

Disc Title: O.Sexuelles.Verlangen.2017.DUAL.COMPLETE.BLURAY-UNiVERSUM
Disc Size: 21,205,496,389 bytes
Protection: AACS
Playlist: 00009.MPLS
Size: 324,582,720 bytes
Length: 0:01:29.959
Total Bitrate: 28.86 Mbps
Video: MPEG-2 Video / 24037 kbps / 1080i / 25 fps / 16:9
Audio: German / LPCM Audio / 2.0 / 48 kHz / 1536 kbps / 16-bit
Audio: German / LPCM Audio / 2.0 / 48 kHz / 1536 kbps / 16-bit
Subtitle: German / 0.488 kbps
Subtitle: German / 0.488 kbps

********************
PLAYLIST: 01009.MPLS
********************

[code]
Total Video
Title Codec Length Movie Size Disc Size Bitrate Bitrate Main Audio Track Secondary Audio Track
----- ------ ------- -------------- -------------- ------- ------- ------------------ ---------------------
01009.MPLS MPEG-2 0:01:14 251,716,032 21,205,496,389 27.21 22.47 LPCM 2.0 1536Kbps (48kHz/16-bit) LPCM 2.0 1536Kbps (48kHz/16-bit)
[/code]

[code]

DISC INFO:

Disc Title: O.Sexuelles.Verlangen.2017.DUAL.COMPLETE.BLURAY-UNiVERSUM
Disc Size: 21,205,496,389 bytes
Protection: AACS
Extras: 50Hz Content
BDInfo: 0.7.4.0

PLAYLIST REPORT:

Name: 01009.MPLS
Length: 0:01:14.001 (h:m:s.ms)
Size: 251,716,032 bytes
Total Bitrate: 27.21 Mbps

VIDEO:

Codec Bitrate Deion
----- ------- -----------
MPEG-2 Video 22474 kbps 1080p / 24 fps / 16:9

AUDIO:

Codec Language Bitrate Deion
----- -------- ------- -----------
LPCM Audio German 1536 kbps 2.0 / 48 kHz / 1536 kbps / 16-bit
LPCM Audio German 1536 kbps 2.0 / 48 kHz / 1536 kbps / 16-bit

SUBTITLES:

Codec Language Bitrate Deion
----- -------- ------- -----------
Presentation Graphics German 1.186 kbps
Presentation Graphics German 1.186 kbps

FILES:

Name Time In Length Size Total Bitrate
---- ------- ------ ---- -------------
00011.M2TS 0:00:00.000 0:01:13.000 251,421,120 27,553
00013.M2TS 0:01:13.000 0:00:01.000 294,912 2,357

CHAPTERS:

Number Time In Length Avg Video Rate Max 1-Sec Rate Max 1-Sec Time Max 5-Sec Rate Max 5-Sec Time Max 10Sec Rate Max 10Sec Time Avg Frame Size Max Frame Size Max Frame Time
------ ------- ------ -------------- -------------- -------------- -------------- -------------- -------------- -------------- -------------- -------------- --------------
1 0:00:00.000 0:01:13.000 22,781 kbps 28,735 kbps 00:00:45.750 23,993 kbps 00:00:41.916 23,397 kbps 00:00:36.750 118,585 bytes 531,774 bytes 00:00:58.041
2 0:01:13.000 0:00:01.001 45 kbps 0 kbps 00:00:00.000 0 kbps 00:00:00.000 0 kbps 00:00:00.000 255 bytes 677 bytes 00:01:13.625

STREAM DIAGNOSTICS:

File PID Type Codec Language Seconds Bitrate Bytes Packets
---- --- ---- ----- -------- -------------- -------------- ------------- -----
00011.M2TS 4113 (0x1011) 0x02 MPEG-2 73.000 22,802 208,070,152 1,131,764
00011.M2TS 4352 (0x1100) 0x80 LPCM deu (German) 73.000 1,544 14,090,788 87,702
00011.M2TS 4353 (0x1101) 0x80 LPCM deu (German) 73.000 1,544 14,090,788 87,702
00011.M2TS 4608 (0x1200) 0x90 PGS deu (German) 73.000 1 5,492 37
00011.M2TS 4609 (0x1201) 0x90 PGS deu (German) 73.000 1 5,492 37
00013.M2TS 4113 (0x1011) 0x1B AVC 0.918 55 6,282 39
00013.M2TS 4352 (0x1100) 0x86 DTS-HD MA deu (German) 0.918 911 104,448 672
00013.M2TS 4353 (0x1101) 0x86 DTS-HD MA deu (German) 0.918 911 104,448 672
00013.M2TS 4608 (0x1200) 0x90 PGS deu (German) 0.918 48 5,476 35
00013.M2TS 4609 (0x1201) 0x90 PGS deu (German) 0.918 48 5,476 35

[/code]

QUICK SUMMARY:

Disc Title: O.Sexuelles.Verlangen.2017.DUAL.COMPLETE.BLURAY-UNiVERSUM
Disc Size: 21,205,496,389 bytes
Protection: AACS
Playlist: 01009.MPLS
Size: 251,716,032 bytes
Length: 0:01:14.001
Total Bitrate: 27.21 Mbps
Video: MPEG-2 Video / 22474 kbps / 1080p / 24 fps / 16:9
Audio: German / LPCM Audio / 2.0 / 48 kHz / 1536 kbps / 16-bit
Audio: German / LPCM Audio / 2.0 / 48 kHz / 1536 kbps / 16-bit
Subtitle: German / 1.186 kbps
Subtitle: German / 1.186 kbps

********************
PLAYLIST: 00011.MPLS
********************

[code]
Total Video
Title Codec Length Movie Size Disc Size Bitrate Bitrate Main Audio Track Secondary Audio Track
----- ------ ------- -------------- -------------- ------- ------- ------------------ ---------------------
00011.MPLS MPEG-2 0:01:13 251,421,120 21,205,496,389 27.55 22.78 LPCM 2.0 1536Kbps (48kHz/16-bit) LPCM 2.0 1536Kbps (48kHz/16-bit)
[/code]

[code]

DISC INFO:

Disc Title: O.Sexuelles.Verlangen.2017.DUAL.COMPLETE.BLURAY-UNiVERSUM
Disc Size: 21,205,496,389 bytes
Protection: AACS
Extras: 50Hz Content
BDInfo: 0.7.4.0

PLAYLIST REPORT:

Name: 00011.MPLS
Length: 0:01:13.000 (h:m:s.ms)
Size: 251,421,120 bytes
Total Bitrate: 27.55 Mbps

VIDEO:

Codec Bitrate Deion
----- ------- -----------
MPEG-2 Video 22781 kbps 1080p / 24 fps / 16:9

AUDIO:

Codec Language Bitrate Deion
----- -------- ------- -----------
LPCM Audio German 1536 kbps 2.0 / 48 kHz / 1536 kbps / 16-bit
LPCM Audio German 1536 kbps 2.0 / 48 kHz / 1536 kbps / 16-bit

SUBTITLES:

Codec Language Bitrate Deion
----- -------- ------- -----------
Presentation Graphics German 0.602 kbps
Presentation Graphics German 0.602 kbps

FILES:

Name Time In Length Size Total Bitrate
---- ------- ------ ---- -------------
00011.M2TS 0:00:00.000 0:01:13.000 251,421,120 27,553

CHAPTERS:

Number Time In Length Avg Video Rate Max 1-Sec Rate Max 1-Sec Time Max 5-Sec Rate Max 5-Sec Time Max 10Sec Rate Max 10Sec Time Avg Frame Size Max Frame Size Max Frame Time
------ ------- ------ -------------- -------------- -------------- -------------- -------------- -------------- -------------- -------------- -------------- --------------
1 0:00:00.000 0:01:13.000 22,781 kbps 28,735 kbps 00:00:45.750 23,993 kbps 00:00:41.916 23,397 kbps 00:00:36.750 118,653 bytes 531,774 bytes 00:00:58.041

STREAM DIAGNOSTICS:

File PID Type Codec Language Seconds Bitrate Bytes Packets
---- --- ---- ----- -------- -------------- -------------- ------------- -----
00011.M2TS 4113 (0x1011) 0x02 MPEG-2 73.000 22,802 208,070,152 1,131,764
00011.M2TS 4352 (0x1100) 0x80 LPCM deu (German) 73.000 1,544 14,090,788 87,702
00011.M2TS 4353 (0x1101) 0x80 LPCM deu (German) 73.000 1,544 14,090,788 87,702
00011.M2TS 4608 (0x1200) 0x90 PGS deu (German) 73.000 1 5,492 37
00011.M2TS 4609 (0x1201) 0x90 PGS deu (German) 73.000 1 5,492 37

[/code]

QUICK SUMMARY:

Disc Title: O.Sexuelles.Verlangen.2017.DUAL.COMPLETE.BLURAY-UNiVERSUM
Disc Size: 21,205,496,389 bytes
Protection: AACS
Playlist: 00011.MPLS
Size: 251,421,120 bytes
Length: 0:01:13.000
Total Bitrate: 27.55 Mbps
Video: MPEG-2 Video / 22781 kbps / 1080p / 24 fps / 16:9
Audio: German / LPCM Audio / 2.0 / 48 kHz / 1536 kbps / 16-bit
Audio: German / LPCM Audio / 2.0 / 48 kHz / 1536 kbps / 16-bit
Subtitle: German / 0.602 kbps
Subtitle: German / 0.602 kbps

********************
PLAYLIST: 01011.MPLS
********************

[code]
Total Video
Title Codec Length Movie Size Disc Size Bitrate Bitrate Main Audio Track Secondary Audio Track
----- ------ ------- -------------- -------------- ------- ------- ------------------ ---------------------
01011.MPLS AVC 0:01:09 265,663,872 21,205,496,389 30.62 19.56 DTS-HD Master 5.1 4610Kbps (48kHz/24-bit) DTS-HD Master 5.1 4610Kbps (48kHz/24-bit)
[/code]

[code]

DISC INFO:

Disc Title: O.Sexuelles.Verlangen.2017.DUAL.COMPLETE.BLURAY-UNiVERSUM
Disc Size: 21,205,496,389 bytes
Protection: AACS
Extras: 50Hz Content
BDInfo: 0.7.4.0

PLAYLIST REPORT:

Name: 01011.MPLS
Length: 0:01:09.402 (h:m:s.ms)
Size: 265,663,872 bytes
Total Bitrate: 30.62 Mbps

VIDEO:

Codec Bitrate Deion
----- ------- -----------
MPEG-4 AVC Video 19557 kbps 1080p / 23.976 fps / 16:9 / High Profile 4.1

AUDIO:

Codec Language Bitrate Deion
----- -------- ------- -----------
DTS-HD Master Audio German 4610 kbps 5.1 / 48 kHz / 4610 kbps / 24-bit (DTS Core: 5.1 / 48 kHz / 1509 kbps / 24-bit)
DTS-HD Master Audio German 4610 kbps 5.1 / 48 kHz / 4610 kbps / 24-bit (DTS Core: 5.1 / 48 kHz / 1509 kbps / 24-bit)

SUBTITLES:

Codec Language Bitrate Deion
----- -------- ------- -----------
Presentation Graphics German 1.264 kbps
Presentation Graphics German 1.264 kbps

FILES:

Name Time In Length Size Total Bitrate
---- ------- ------ ---- -------------
00015.M2TS 0:00:00.000 0:01:08.401 265,368,960 31,018
00013.M2TS 0:01:08.401 0:00:01.000 294,912 2,357

CHAPTERS:

Number Time In Length Avg Video Rate Max 1-Sec Rate Max 1-Sec Time Max 5-Sec Rate Max 5-Sec Time Max 10Sec Rate Max 10Sec Time Avg Frame Size Max Frame Size Max Frame Time
------ ------- ------ -------------- -------------- -------------- -------------- -------------- -------------- -------------- -------------- -------------- --------------
1 0:00:00.000 0:01:08.401 19,854 kbps 32,220 kbps 00:00:00.583 24,296 kbps 00:01:00.351 22,904 kbps 00:00:22.272 103,574 bytes 537,474 bytes 00:00:03.753
2 0:01:08.401 0:00:01.001 45 kbps 0 kbps 00:00:00.000 0 kbps 00:00:00.000 0 kbps 00:00:00.000 255 bytes 677 bytes 00:01:09.027

STREAM DIAGNOSTICS:

File PID Type Codec Language Seconds Bitrate Bytes Packets
---- --- ---- ----- -------- -------------- -------------- ------------- -----
00015.M2TS 4113 (0x1011) 0x1B AVC 68.277 19,891 169,758,123 923,562
00015.M2TS 4352 (0x1100) 0x86 DTS-HD MA deu (German) 68.277 4,677 39,916,508 227,705
00015.M2TS 4353 (0x1101) 0x86 DTS-HD MA deu (German) 68.277 4,677 39,916,508 227,705
00015.M2TS 4608 (0x1200) 0x90 PGS deu (German) 68.277 1 5,492 37
00015.M2TS 4609 (0x1201) 0x90 PGS deu (German) 68.277 1 5,492 37
00013.M2TS 4113 (0x1011) 0x1B AVC 0.918 55 6,282 39
00013.M2TS 4352 (0x1100) 0x86 DTS-HD MA deu (German) 0.918 911 104,448 672
00013.M2TS 4353 (0x1101) 0x86 DTS-HD MA deu (German) 0.918 911 104,448 672
00013.M2TS 4608 (0x1200) 0x90 PGS deu (German) 0.918 48 5,476 35
00013.M2TS 4609 (0x1201) 0x90 PGS deu (German) 0.918 48 5,476 35

[/code]

QUICK SUMMARY:

Disc Title: O.Sexuelles.Verlangen.2017.DUAL.COMPLETE.BLURAY-UNiVERSUM
Disc Size: 21,205,496,389 bytes
Protection: AACS
Playlist: 01011.MPLS
Size: 265,663,872 bytes
Length: 0:01:09.402
Total Bitrate: 30.62 Mbps
Video: MPEG-4 AVC Video / 19557 kbps / 1080p / 23.976 fps / 16:9 / High Profile 4.1
Audio: German / DTS-HD Master Audio / 5.1 / 48 kHz / 4610 kbps / 24-bit (DTS Core: 5.1 / 48 kHz / 1509 kbps / 24-bit)
Audio: German / DTS-HD Master Audio / 5.1 / 48 kHz / 4610 kbps / 24-bit (DTS Core: 5.1 / 48 kHz / 1509 kbps / 24-bit)
Subtitle: German / 1.264 kbps
Subtitle: German / 1.264 kbps

********************
PLAYLIST: 00015.MPLS
********************

[code]
Total Video
Title Codec Length Movie Size Disc Size Bitrate Bitrate Main Audio Track Secondary Audio Track
----- ------ ------- -------------- -------------- ------- ------- ------------------ ---------------------
00015.MPLS AVC 0:01:08 265,368,960 21,205,496,389 31.04 19.84 DTS-HD Master 5.1 4666Kbps (48kHz/24-bit) DTS-HD Master 5.1 4666Kbps (48kHz/24-bit)
[/code]

[code]

DISC INFO:

Disc Title: O.Sexuelles.Verlangen.2017.DUAL.COMPLETE.BLURAY-UNiVERSUM
Disc Size: 21,205,496,389 bytes
Protection: AACS
Extras: 50Hz Content
BDInfo: 0.7.4.0

PLAYLIST REPORT:

Name: 00015.MPLS
Length: 0:01:08.401 (h:m:s.ms)
Size: 265,368,960 bytes
Total Bitrate: 31.04 Mbps

VIDEO:

Codec Bitrate Deion
----- ------- -----------
MPEG-4 AVC Video 19842 kbps 1080p / 23.976 fps / 16:9 / High Profile 4.1

AUDIO:

Codec Language Bitrate Deion
----- -------- ------- -----------
DTS-HD Master Audio German 4666 kbps 5.1 / 48 kHz / 4666 kbps / 24-bit (DTS Core: 5.1 / 48 kHz / 1509 kbps / 24-bit)
DTS-HD Master Audio German 4666 kbps 5.1 / 48 kHz / 4666 kbps / 24-bit (DTS Core: 5.1 / 48 kHz / 1509 kbps / 24-bit)

SUBTITLES:

Codec Language Bitrate Deion
----- -------- ------- -----------
Presentation Graphics German 0.642 kbps
Presentation Graphics German 0.642 kbps

FILES:

Name Time In Length Size Total Bitrate
---- ------- ------ ---- -------------
00015.M2TS 0:00:00.000 0:01:08.401 265,368,960 31,018

CHAPTERS:

Number Time In Length Avg Video Rate Max 1-Sec Rate Max 1-Sec Time Max 5-Sec Rate Max 5-Sec Time Max 10Sec Rate Max 10Sec Time Avg Frame Size Max Frame Size Max Frame Time
------ ------- ------ -------------- -------------- -------------- -------------- -------------- -------------- -------------- -------------- -------------- --------------
1 0:00:00.000 0:01:08.401 19,854 kbps 32,220 kbps 00:00:00.583 24,296 kbps 00:01:00.351 22,904 kbps 00:00:22.272 103,637 bytes 537,474 bytes 00:00:03.753

STREAM DIAGNOSTICS:

File PID Type Codec Language Seconds Bitrate Bytes Packets
---- --- ---- ----- -------- -------------- -------------- ------------- -----
00015.M2TS 4113 (0x1011) 0x1B AVC 68.277 19,891 169,758,123 923,562
00015.M2TS 4352 (0x1100) 0x86 DTS-HD MA deu (German) 68.277 4,677 39,916,508 227,705
00015.M2TS 4353 (0x1101) 0x86 DTS-HD MA deu (German) 68.277 4,677 39,916,508 227,705
00015.M2TS 4608 (0x1200) 0x90 PGS deu (German) 68.277 1 5,492 37
00015.M2TS 4609 (0x1201) 0x90 PGS deu (German) 68.277 1 5,492 37

[/code]

QUICK SUMMARY:

Disc Title: O.Sexuelles.Verlangen.2017.DUAL.COMPLETE.BLURAY-UNiVERSUM
Disc Size: 21,205,496,389 bytes
Protection: AACS
Playlist: 00015.MPLS
Size: 265,368,960 bytes
Length: 0:01:08.401
Total Bitrate: 31.04 Mbps
Video: MPEG-4 AVC Video / 19842 kbps / 1080p / 23.976 fps / 16:9 / High Profile 4.1
Audio: German / DTS-HD Master Audio / 5.1 / 48 kHz / 4666 kbps / 24-bit (DTS Core: 5.1 / 48 kHz / 1509 kbps / 24-bit)
Audio: German / DTS-HD Master Audio / 5.1 / 48 kHz / 4666 kbps / 24-bit (DTS Core: 5.1 / 48 kHz / 1509 kbps / 24-bit)
Subtitle: German / 0.642 kbps
Subtitle: German / 0.642 kbps

********************
PLAYLIST: 01005.MPLS
********************

[code]
Total Video
Title Codec Length Movie Size Disc Size Bitrate Bitrate Main Audio Track Secondary Audio Track
----- ------ ------- -------------- -------------- ------- ------- ------------------ ---------------------
01005.MPLS MPEG-2 0:01:05 157,601,664 21,205,496,389 19.15 14.75 LPCM 2.0 1536Kbps (48kHz/16-bit) LPCM 2.0 1536Kbps (48kHz/16-bit)
[/code]

[code]

DISC INFO:

Disc Title: O.Sexuelles.Verlangen.2017.DUAL.COMPLETE.BLURAY-UNiVERSUM
Disc Size: 21,205,496,389 bytes
Protection: AACS
Extras: 50Hz Content
BDInfo: 0.7.4.0

PLAYLIST REPORT:

Name: 01005.MPLS
Length: 0:01:05.834 (h:m:s.ms)
Size: 157,601,664 bytes
Total Bitrate: 19.15 Mbps

VIDEO:

Codec Bitrate Deion
----- ------- -----------
MPEG-2 Video 14749 kbps 1080p / 24 fps / 16:9

AUDIO:

Codec Language Bitrate Deion
----- -------- ------- -----------
LPCM Audio German 1536 kbps 2.0 / 48 kHz / 1536 kbps / 16-bit
LPCM Audio German 1536 kbps 2.0 / 48 kHz / 1536 kbps / 16-bit

SUBTITLES:

Codec Language Bitrate Deion
----- -------- ------- -----------
Presentation Graphics German 1.333 kbps
Presentation Graphics German 1.333 kbps

FILES:

Name Time In Length Size Total Bitrate
---- ------- ------ ---- -------------
00008.M2TS 0:00:00.000 0:01:04.833 157,306,752 19,411
00013.M2TS 0:01:04.833 0:00:01.000 294,912 2,357

CHAPTERS:

Number Time In Length Avg Video Rate Max 1-Sec Rate Max 1-Sec Time Max 5-Sec Rate Max 5-Sec Time Max 10Sec Rate Max 10Sec Time Avg Frame Size Max Frame Size Max Frame Time
------ ------- ------ -------------- -------------- -------------- -------------- -------------- -------------- -------------- -------------- -------------- --------------
1 0:00:00.000 0:01:04.833 14,976 kbps 22,784 kbps 00:00:43.250 16,123 kbps 00:00:39.916 15,647 kbps 00:00:34.250 77,951 bytes 643,729 bytes 00:00:43.666
2 0:01:04.833 0:00:01.001 45 kbps 0 kbps 00:00:00.000 0 kbps 00:00:00.000 0 kbps 00:00:00.000 255 bytes 677 bytes 00:01:05.458

STREAM DIAGNOSTICS:

File PID Type Codec Language Seconds Bitrate Bytes Packets
---- --- ---- ----- -------- -------------- -------------- ------------- -----
00008.M2TS 4113 (0x1011) 0x02 MPEG-2 64.875 14,972 121,413,702 660,770
00008.M2TS 4352 (0x1100) 0x80 LPCM deu (German) 64.875 1,543 12,516,576 77,904
00008.M2TS 4353 (0x1101) 0x80 LPCM deu (German) 64.875 1,543 12,516,576 77,904
00008.M2TS 4608 (0x1200) 0x90 PGS deu (German) 64.875 1 5,492 37
00008.M2TS 4609 (0x1201) 0x90 PGS deu (German) 64.875 1 5,492 37
00013.M2TS 4113 (0x1011) 0x1B AVC 0.918 55 6,282 39
00013.M2TS 4352 (0x1100) 0x86 DTS-HD MA deu (German) 0.918 911 104,448 672
00013.M2TS 4353 (0x1101) 0x86 DTS-HD MA deu (German) 0.918 911 104,448 672
00013.M2TS 4608 (0x1200) 0x90 PGS deu (German) 0.918 48 5,476 35
00013.M2TS 4609 (0x1201) 0x90 PGS deu (German) 0.918 48 5,476 35

[/code]

QUICK SUMMARY:

Disc Title: O.Sexuelles.Verlangen.2017.DUAL.COMPLETE.BLURAY-UNiVERSUM
Disc Size: 21,205,496,389 bytes
Protection: AACS
Playlist: 01005.MPLS
Size: 157,601,664 bytes
Length: 0:01:05.834
Total Bitrate: 19.15 Mbps
Video: MPEG-2 Video / 14749 kbps / 1080p / 24 fps / 16:9
Audio: German / LPCM Audio / 2.0 / 48 kHz / 1536 kbps / 16-bit
Audio: German / LPCM Audio / 2.0 / 48 kHz / 1536 kbps / 16-bit
Subtitle: German / 1.333 kbps
Subtitle: German / 1.333 kbps

********************
PLAYLIST: 00008.MPLS
********************

[code]
Total Video
Title Codec Length Movie Size Disc Size Bitrate Bitrate Main Audio Track Secondary Audio Track
----- ------ ------- -------------- -------------- ------- ------- ------------------ ---------------------
00008.MPLS MPEG-2 0:01:04 157,306,752 21,205,496,389 19.41 14.98 LPCM 2.0 1536Kbps (48kHz/16-bit) LPCM 2.0 1536Kbps (48kHz/16-bit)
[/code]

[code]

DISC INFO:

Disc Title: O.Sexuelles.Verlangen.2017.DUAL.COMPLETE.BLURAY-UNiVERSUM
Disc Size: 21,205,496,389 bytes
Protection: AACS
Extras: 50Hz Content
BDInfo: 0.7.4.0

PLAYLIST REPORT:

Name: 00008.MPLS
Length: 0:01:04.833 (h:m:s.ms)
Size: 157,306,752 bytes
Total Bitrate: 19.41 Mbps

VIDEO:

Codec Bitrate Deion
----- ------- -----------
MPEG-2 Video 14976 kbps 1080p / 24 fps / 16:9

AUDIO:

Codec Language Bitrate Deion
----- -------- ------- -----------
LPCM Audio German 1536 kbps 2.0 / 48 kHz / 1536 kbps / 16-bit
LPCM Audio German 1536 kbps 2.0 / 48 kHz / 1536 kbps / 16-bit

SUBTITLES:

Codec Language Bitrate Deion
----- -------- ------- -----------
Presentation Graphics German 0.678 kbps
Presentation Graphics German 0.678 kbps

FILES:

Name Time In Length Size Total Bitrate
---- ------- ------ ---- -------------
00008.M2TS 0:00:00.000 0:01:04.833 157,306,752 19,411

CHAPTERS:

Number Time In Length Avg Video Rate Max 1-Sec Rate Max 1-Sec Time Max 5-Sec Rate Max 5-Sec Time Max 10Sec Rate Max 10Sec Time Avg Frame Size Max Frame Size Max Frame Time
------ ------- ------ -------------- -------------- -------------- -------------- -------------- -------------- -------------- -------------- -------------- --------------
1 0:00:00.000 0:01:04.833 14,976 kbps 22,784 kbps 00:00:43.250 16,123 kbps 00:00:39.916 15,647 kbps 00:00:34.250 78,001 bytes 643,729 bytes 00:00:43.666

STREAM DIAGNOSTICS:

File PID Type Codec Language Seconds Bitrate Bytes Packets
---- --- ---- ----- -------- -------------- -------------- ------------- -----
00008.M2TS 4113 (0x1011) 0x02 MPEG-2 64.875 14,972 121,413,702 660,770
00008.M2TS 4352 (0x1100) 0x80 LPCM deu (German) 64.875 1,543 12,516,576 77,904
00008.M2TS 4353 (0x1101) 0x80 LPCM deu (German) 64.875 1,543 12,516,576 77,904
00008.M2TS 4608 (0x1200) 0x90 PGS deu (German) 64.875 1 5,492 37
00008.M2TS 4609 (0x1201) 0x90 PGS deu (German) 64.875 1 5,492 37

[/code]

QUICK SUMMARY:

Disc Title: O.Sexuelles.Verlangen.2017.DUAL.COMPLETE.BLURAY-UNiVERSUM
Disc Size: 21,205,496,389 bytes
Protection: AACS
Playlist: 00008.MPLS
Size: 157,306,752 bytes
Length: 0:01:04.833
Total Bitrate: 19.41 Mbps
Video: MPEG-2 Video / 14976 kbps / 1080p / 24 fps / 16:9
Audio: German / LPCM Audio / 2.0 / 48 kHz / 1536 kbps / 16-bit
Audio: German / LPCM Audio / 2.0 / 48 kHz / 1536 kbps / 16-bit
Subtitle: German / 0.678 kbps
Subtitle: German / 0.678 kbps

********************
PLAYLIST: 01013.MPLS
********************

[code]
Total Video
Title Codec Length Movie Size Disc Size Bitrate Bitrate Main Audio Track Secondary Audio Track
----- ------ ------- -------------- -------------- ------- ------- ------------------ ---------------------
01013.MPLS AVC 0:00:36 121,627,200 21,205,496,389 26.31 24.82 DTS-HD Master 2.0 263Kbps (48kHz/16-bit)
[/code]

[code]

DISC INFO:

Disc Title: O.Sexuelles.Verlangen.2017.DUAL.COMPLETE.BLURAY-UNiVERSUM
Disc Size: 21,205,496,389 bytes
Protection: AACS
Extras: 50Hz Content
BDInfo: 0.7.4.0

PLAYLIST REPORT:

Name: 01013.MPLS
Length: 0:00:36.978 (h:m:s.ms)
Size: 121,627,200 bytes
Total Bitrate: 26.31 Mbps

VIDEO:

Codec Bitrate Deion
----- ------- -----------
MPEG-4 AVC Video 24819 kbps 1080p / 23.976 fps / 16:9 / High Profile 4.1

AUDIO:

Codec Language Bitrate Deion
----- -------- ------- -----------
DTS-HD Master Audio German 263 kbps 2.0 / 48 kHz / 263 kbps / 16-bit (DTS Core: 2.0 / 48 kHz / 768 kbps / 16-bit)
DTS-HD Master Audio English 23 kbps 2.0 / 48 kHz / 23 kbps / 16-bit (DTS Core: 2.0 / 48 kHz / 768 kbps / 16-bit)

SUBTITLES:

Codec Language Bitrate Deion
----- -------- ------- -----------
Presentation Graphics German 1.185 kbps
Presentation Graphics English 1.185 kbps

FILES:

Name Time In Length Size Total Bitrate
---- ------- ------ ---- -------------
00000.M2TS 0:00:00.000 0:00:17.919 71,422,656 31,885
00001.M2TS 0:00:17.919 0:00:06.923 18,185,856 21,013
00002.M2TS 0:00:24.843 0:00:10.093 31,705,344 25,129
00003.M2TS 0:00:34.937 0:00:01.040 18,432 142
00013.M2TS 0:00:35.977 0:00:01.000 294,912 2,357

CHAPTERS:

Number Time In Length Avg Video Rate Max 1-Sec Rate Max 1-Sec Time Max 5-Sec Rate Max 5-Sec Time Max 10Sec Rate Max 10Sec Time Avg Frame Size Max Frame Size Max Frame Time
------ ------- ------ -------------- -------------- -------------- -------------- -------------- -------------- -------------- -------------- -------------- --------------
1 0:00:00.000 0:00:17.919 30,014 kbps 30,899 kbps 00:00:10.920 30,180 kbps 00:00:06.919 30,090 kbps 00:00:01.880 149,736 bytes 262,368 bytes 00:00:11.920
2 0:00:17.919 0:00:06.923 19,893 kbps 20,000 kbps 00:00:23.800 20,000 kbps 00:00:19.796 0 kbps 00:00:00.000 103,715 bytes 104,274 bytes 00:00:24.801
3 0:00:24.843 0:00:10.093 23,984 kbps 32,957 kbps 00:00:33.393 27,692 kbps 00:00:29.514 24,175 kbps 00:00:24.885 125,044 bytes 676,211 bytes 00:00:27.888
4 0:00:34.937 0:00:01.039 59 kbps 60 kbps 00:00:34.975 0 kbps 00:00:00.000 0 kbps 00:00:00.000 294 bytes 782 bytes 00:00:35.537
5 0:00:35.977 0:00:01.000 45 kbps 0 kbps 00:00:00.000 0 kbps 00:00:00.000 0 kbps 00:00:00.000 255 bytes 677 bytes 00:00:36.602

STREAM DIAGNOSTICS:

File PID Type Codec Language Seconds Bitrate Bytes Packets
---- --- ---- ----- -------- -------------- -------------- ------------- -----
00000.M2TS 4113 (0x1011) 0x02 MPEG-2 17.880 30,099 67,270,756 365,926
00000.M2TS 4352 (0x1100) 0x81 AC3 deu (German) 17.880 451 1,008,896 5,630
00001.M2TS 4113 (0x1011) 0x02 MPEG-2 6.882 20,097 17,288,116 94,012
00001.M2TS 4352 (0x1100) 0x86 DTS-HD MA deu (German) 6.882 121 104,448 672
00002.M2TS 4113 (0x1011) 0x02 MPEG-2 10.135 23,939 30,327,622 164,968
00003.M2TS 4113 (0x1011) 0x1B AVC 0.960 65 7,752 50
00013.M2TS 4113 (0x1011) 0x1B AVC 0.918 55 6,282 39
00013.M2TS 4352 (0x1100) 0x86 DTS-HD MA deu (German) 0.918 911 104,448 672
00013.M2TS 4353 (0x1101) 0x86 DTS-HD MA eng (English) 0.918 911 104,448 672
00013.M2TS 4608 (0x1200) 0x90 PGS deu (German) 0.918 48 5,476 35
00013.M2TS 4609 (0x1201) 0x90 PGS eng (English) 0.918 48 5,476 35

[/code]

QUICK SUMMARY:

Disc Title: O.Sexuelles.Verlangen.2017.DUAL.COMPLETE.BLURAY-UNiVERSUM
Disc Size: 21,205,496,389 bytes
Protection: AACS
Playlist: 01013.MPLS
Size: 121,627,200 bytes
Length: 0:00:36.978
Total Bitrate: 26.31 Mbps
Video: MPEG-4 AVC Video / 24819 kbps / 1080p / 23.976 fps / 16:9 / High Profile 4.1
Audio: German / DTS-HD Master Audio / 2.0 / 48 kHz / 263 kbps / 16-bit (DTS Core: 2.0 / 48 kHz / 768 kbps / 16-bit)
Audio: English / DTS-HD Master Audio / 2.0 / 48 kHz / 23 kbps / 16-bit (DTS Core: 2.0 / 48 kHz / 768 kbps / 16-bit)
Subtitle: German / 1.185 kbps
Subtitle: English / 1.185 kbps

********************
PLAYLIST: 00006.MPLS
********************

[code]
Total Video
Title Codec Length Movie Size Disc Size Bitrate Bitrate Main Audio Track Secondary Audio Track
----- ------ ------- -------------- -------------- ------- ------- ------------------ ---------------------
00006.MPLS MPEG-2 0:00:33 103,201,152 21,205,496,389 24.65 19.98 LPCM 2.0 1536Kbps (48kHz/16-bit)
[/code]

[code]

DISC INFO:

Disc Title: O.Sexuelles.Verlangen.2017.DUAL.COMPLETE.BLURAY-UNiVERSUM
Disc Size: 21,205,496,389 bytes
Protection: AACS
Extras: 50Hz Content
BDInfo: 0.7.4.0

PLAYLIST REPORT:

Name: 00006.MPLS
Length: 0:00:33.500 (h:m:s.ms)
Size: 103,201,152 bytes
Total Bitrate: 24.65 Mbps

VIDEO:

Codec Bitrate Deion
----- ------- -----------
MPEG-2 Video 19978 kbps 1080p / 24 fps / 16:9

AUDIO:

Codec Language Bitrate Deion
----- -------- ------- -----------
LPCM Audio German 1536 kbps 2.0 / 48 kHz / 1536 kbps / 16-bit
LPCM Audio Russian 1536 kbps 2.0 / 48 kHz / 1536 kbps / 16-bit

SUBTITLES:

Codec Language Bitrate Deion
----- -------- ------- -----------
Presentation Graphics German 1.312 kbps
Presentation Graphics German 1.312 kbps

FILES:

Name Time In Length Size Total Bitrate
---- ------- ------ ---- -------------
00006.M2TS 0:00:00.000 0:00:33.500 103,201,152 24,645

CHAPTERS:

Number Time In Length Avg Video Rate Max 1-Sec Rate Max 1-Sec Time Max 5-Sec Rate Max 5-Sec Time Max 10Sec Rate Max 10Sec Time Avg Frame Size Max Frame Size Max Frame Time
------ ------- ------ -------------- -------------- -------------- -------------- -------------- -------------- -------------- -------------- -------------- --------------
1 0:00:00.000 0:00:33.500 19,978 kbps 21,639 kbps 00:00:14.500 20,341 kbps 00:00:10.541 20,170 kbps 00:00:05.500 104,054 bytes 317,627 bytes 00:00:15.541

STREAM DIAGNOSTICS:

File PID Type Codec Language Seconds Bitrate Bytes Packets
---- --- ---- ----- -------- -------------- -------------- ------------- -----
00006.M2TS 4113 (0x1011) 0x02 MPEG-2 33.500 19,995 83,728,552 455,671
00006.M2TS 4352 (0x1100) 0x80 LPCM deu (German) 33.500 1,546 6,475,188 40,302
00006.M2TS 4353 (0x1101) 0x80 LPCM rus (Russian) 33.500 1,546 6,475,188 40,302
00006.M2TS 4608 (0x1200) 0x90 PGS deu (German) 33.500 1 5,492 37
00006.M2TS 4609 (0x1201) 0x90 PGS deu (German) 33.500 1 5,492 37

[/code]

QUICK SUMMARY:

Disc Title: O.Sexuelles.Verlangen.2017.DUAL.COMPLETE.BLURAY-UNiVERSUM
Disc Size: 21,205,496,389 bytes
Protection: AACS
Playlist: 00006.MPLS
Size: 103,201,152 bytes
Length: 0:00:33.500
Total Bitrate: 24.65 Mbps
Video: MPEG-2 Video / 19978 kbps / 1080p / 24 fps / 16:9
Audio: German / LPCM Audio / 2.0 / 48 kHz / 1536 kbps / 16-bit
Audio: Russian / LPCM Audio / 2.0 / 48 kHz / 1536 kbps / 16-bit
Subtitle: German / 1.312 kbps
Subtitle: German / 1.312 kbps

********************
PLAYLIST: 01002.MPLS
********************

[code]
Total Video
Title Codec Length Movie Size Disc Size Bitrate Bitrate Main Audio Track Secondary Audio Track
----- ------ ------- -------------- -------------- ------- ------- ------------------ ---------------------
01002.MPLS MPEG-2 0:00:33 103,201,152 21,205,496,389 24.65 19.98 LPCM 2.0 1536Kbps (48kHz/16-bit)
[/code]

[code]

DISC INFO:

Disc Title: O.Sexuelles.Verlangen.2017.DUAL.COMPLETE.BLURAY-UNiVERSUM
Disc Size: 21,205,496,389 bytes
Protection: AACS
Extras: 50Hz Content
BDInfo: 0.7.4.0

PLAYLIST REPORT:

Name: 01002.MPLS
Length: 0:00:33.500 (h:m:s.ms)
Size: 103,201,152 bytes
Total Bitrate: 24.65 Mbps

VIDEO:

Codec Bitrate Deion
----- ------- -----------
MPEG-2 Video 19978 kbps 1080p / 24 fps / 16:9

AUDIO:

Codec Language Bitrate Deion
----- -------- ------- -----------
LPCM Audio German 1536 kbps 2.0 / 48 kHz / 1536 kbps / 16-bit
LPCM Audio Russian 1536 kbps 2.0 / 48 kHz / 1536 kbps / 16-bit

SUBTITLES:

Codec Language Bitrate Deion
----- -------- ------- -----------
Presentation Graphics German 1.312 kbps
Presentation Graphics German 1.312 kbps

FILES:

Name Time In Length Size Total Bitrate
---- ------- ------ ---- -------------
00006.M2TS 0:00:00.000 0:00:33.500 103,201,152 24,645

CHAPTERS:

Number Time In Length Avg Video Rate Max 1-Sec Rate Max 1-Sec Time Max 5-Sec Rate Max 5-Sec Time Max 10Sec Rate Max 10Sec Time Avg Frame Size Max Frame Size Max Frame Time
------ ------- ------ -------------- -------------- -------------- -------------- -------------- -------------- -------------- -------------- -------------- --------------
1 0:00:00.000 0:00:33.500 19,978 kbps 21,639 kbps 00:00:14.500 20,341 kbps 00:00:10.541 20,170 kbps 00:00:05.500 104,054 bytes 317,627 bytes 00:00:15.541

STREAM DIAGNOSTICS:

File PID Type Codec Language Seconds Bitrate Bytes Packets
---- --- ---- ----- -------- -------------- -------------- ------------- -----
00006.M2TS 4113 (0x1011) 0x02 MPEG-2 33.500 19,995 83,728,552 455,671
00006.M2TS 4352 (0x1100) 0x80 LPCM deu (German) 33.500 1,546 6,475,188 40,302
00006.M2TS 4353 (0x1101) 0x80 LPCM rus (Russian) 33.500 1,546 6,475,188 40,302
00006.M2TS 4608 (0x1200) 0x90 PGS deu (German) 33.500 1 5,492 37
00006.M2TS 4609 (0x1201) 0x90 PGS deu (German) 33.500 1 5,492 37

[/code]

QUICK SUMMARY:

Disc Title: O.Sexuelles.Verlangen.2017.DUAL.COMPLETE.BLURAY-UNiVERSUM
Disc Size: 21,205,496,389 bytes
Protection: AACS
Playlist: 01002.MPLS
Size: 103,201,152 bytes
Length: 0:00:33.500
Total Bitrate: 24.65 Mbps
Video: MPEG-2 Video / 19978 kbps / 1080p / 24 fps / 16:9
Audio: German / LPCM Audio / 2.0 / 48 kHz / 1536 kbps / 16-bit
Audio: Russian / LPCM Audio / 2.0 / 48 kHz / 1536 kbps / 16-bit
Subtitle: German / 1.312 kbps
Subtitle: German / 1.312 kbps

********************
PLAYLIST: 00014.MPLS
********************

[code]
Total Video
Title Codec Length Movie Size Disc Size Bitrate Bitrate Main Audio Track Secondary Audio Track
----- ------ ------- -------------- -------------- ------- ------- ------------------ ---------------------
00014.MPLS MPEG-2 0:00:29 82,862,016 21,205,496,389 22.14 21.13
[/code]

[code]

DISC INFO:

Disc Title: O.Sexuelles.Verlangen.2017.DUAL.COMPLETE.BLURAY-UNiVERSUM
Disc Size: 21,205,496,389 bytes
Protection: AACS
Extras: 50Hz Content
BDInfo: 0.7.4.0

PLAYLIST REPORT:

Name: 00014.MPLS
Length: 0:00:29.946 (h:m:s.ms)
Size: 82,862,016 bytes
Total Bitrate: 22.14 Mbps

VIDEO:

Codec Bitrate Deion
----- ------- -----------
MPEG-2 Video 21130 kbps 1080p / 23.976 fps / 16:9

FILES:

Name Time In Length Size Total Bitrate
---- ------- ------ ---- -------------
00014.M2TS 0:00:00.000 0:00:29.946 82,862,016 22,136

CHAPTERS:

Number Time In Length Avg Video Rate Max 1-Sec Rate Max 1-Sec Time Max 5-Sec Rate Max 5-Sec Time Max 10Sec Rate Max 10Sec Time Avg Frame Size Max Frame Size Max Frame Time
------ ------- ------ -------------- -------------- -------------- -------------- -------------- -------------- -------------- -------------- -------------- --------------
1 0:00:00.000 0:00:29.946 21,130 kbps 23,763 kbps 00:00:10.802 22,010 kbps 00:00:10.719 22,010 kbps 00:00:10.719 110,162 bytes 603,217 bytes 00:00:01.167

STREAM DIAGNOSTICS:

File PID Type Codec Language Seconds Bitrate Bytes Packets
---- --- ---- ----- -------- -------------- -------------- ------------- -----
00014.M2TS 4113 (0x1011) 0x02 MPEG-2 29.905 21,294 79,597,729 432,965

[/code]

QUICK SUMMARY:

Disc Title: O.Sexuelles.Verlangen.2017.DUAL.COMPLETE.BLURAY-UNiVERSUM
Disc Size: 21,205,496,389 bytes
Protection: AACS
Playlist: 00014.MPLS
Size: 82,862,016 bytes
Length: 0:00:29.946
Total Bitrate: 22.14 Mbps
Video: MPEG-2 Video / 21130 kbps / 1080p / 23.976 fps / 16:9

********************
PLAYLIST: 01007.MPLS
********************

[code]
Total Video
Title Codec Length Movie Size Disc Size Bitrate Bitrate Main Audio Track Secondary Audio Track
----- ------ ------- -------------- -------------- ------- ------- ------------------ ---------------------
01007.MPLS MPEG-2 0:00:29 82,862,016 21,205,496,389 22.14 21.13
[/code]

[code]

DISC INFO:

Disc Title: O.Sexuelles.Verlangen.2017.DUAL.COMPLETE.BLURAY-UNiVERSUM
Disc Size: 21,205,496,389 bytes
Protection: AACS
Extras: 50Hz Content
BDInfo: 0.7.4.0

PLAYLIST REPORT:

Name: 01007.MPLS
Length: 0:00:29.946 (h:m:s.ms)
Size: 82,862,016 bytes
Total Bitrate: 22.14 Mbps

VIDEO:

Codec Bitrate Deion
----- ------- -----------
MPEG-2 Video 21130 kbps 1080p / 23.976 fps / 16:9

FILES:

Name Time In Length Size Total Bitrate
---- ------- ------ ---- -------------
00014.M2TS 0:00:00.000 0:00:29.946 82,862,016 22,136

CHAPTERS:

Number Time In Length Avg Video Rate Max 1-Sec Rate Max 1-Sec Time Max 5-Sec Rate Max 5-Sec Time Max 10Sec Rate Max 10Sec Time Avg Frame Size Max Frame Size Max Frame Time
------ ------- ------ -------------- -------------- -------------- -------------- -------------- -------------- -------------- -------------- -------------- --------------
1 0:00:00.000 0:00:29.946 21,130 kbps 23,763 kbps 00:00:10.802 22,010 kbps 00:00:10.719 22,010 kbps 00:00:10.719 110,162 bytes 603,217 bytes 00:00:01.167

STREAM DIAGNOSTICS:

File PID Type Codec Language Seconds Bitrate Bytes Packets
---- --- ---- ----- -------- -------------- -------------- ------------- -----
00014.M2TS 4113 (0x1011) 0x02 MPEG-2 29.905 21,294 79,597,729 432,965

[/code]

QUICK SUMMARY:

Disc Title: O.Sexuelles.Verlangen.2017.DUAL.COMPLETE.BLURAY-UNiVERSUM
Disc Size: 21,205,496,389 bytes
Protection: AACS
Playlist: 01007.MPLS
Size: 82,862,016 bytes
Length: 0:00:29.946
Total Bitrate: 22.14 Mbps
Video: MPEG-2 Video / 21130 kbps / 1080p / 23.976 fps / 16:9
picpicpicpicpic
Для увеличения картинки щелкните мышкой по превью

Этот торрент недоступен для скачивания без регистрации, однако доступен по публичной magnet-ссылке (источники с публичных трекеров). Перед использованием ссылки прочтите, пожалуйста Пользовательское соглашение, а также как можно дольше оставайтесь на раздаче! Для того, чтобы скачать сам торрент-файл (который видит больше источников), а также для того, чтобы поблагодарить релизера, вам необходимо зарегистрироваться. Если регистрироваться лень - вы можете также попробовать скачать релиз по нашим партнерским ссылкам ниже. Кроме того, зарегистрированным пользователям не показывается всплывающая реклама при скачивании.

[underverse.name].t119289.torrent
Трекер: Зарегистрирован   [ 16.11.2018 11:58 ]  

Статус: проверено (by makkol at 16.11.2018 11:58)
Поблагодарили: пока никто не поблагодарил...
Тип торрента: публичный - доступные источники с открытых трекеров: 
Размер: 19,75 GB (занимает 4,51 DVDR, для записи нужно 5 болванок DVDR/RW)
 
 
Похожие темы
Форум Тема Автор Торрент Отв. Посл. сооб.
Наше кино [DVDRip, Low-Res HDRip, и т.д.] О любви (Владимир Бортко) [2017 г., мелодрама, BDRip] makkol
6 | 0

0 | 428

17

16.11.2018 11:37

T Наше кино [HDDVDRip / BDRip / WEB-DL / HDTV 1080/720р] О любви (Владимир Бортко) [2017 г., мелодрама, WEB-DL 720p] Rus (iTunes) makkol
2 | 0

0 | 807

8

16.04.2017 21:27

Наше кино [HDDVDRip / BDRip / WEB-DL / HDTV 1080/720р] О любви (Владимир Бортко) [2017 г., мелодрама, BDRip 1080p] makkol
5 | 0

1 | 458

19

25.11.2018 03:37


Яндекс.Метрика powered by Sphinx


В Н И М А Н И Е
Сайт не распространяет и не хранит электронные версии произведений, а лишь бесплатно и без коммерческой выгоды (не требуя взамен платы,
SMS и т.д.) предоставляет доступ к создаваемому пользователями каталогу ссылок на торрент-файлы, которые содержат только списки хеш-сумм.
Убедительная просьба с жалобами обращаться напрямую к пользователю, разместившему торрент файл.

Вверх