Loading...
Error

(New Age) Schiller - Desire (2008) [FLAC (Image+.CUE), lossless]

Статистика раздачи
Размер:  498 MB   |    Зарегистрирован:  10 лет   |    Скачан:  7 раз

Полного источника не было: 9 месяцев

Сидов:  0  |  0 KB/s  ]   Личеров:  0  |  0 KB/s  ]

* - сиды/пиры с внешних источников

   
 
Автор Сообщение

Bratok Пол:Муж

02-Июл-2010 20:07

Schiller - Desire
Жанр: New Age
Год выпуска: 2008
Производитель диска: Германия
Аудиокодек: FLAC
Тип рипа: Image+.CUE
Битрейт аудио: lossless
Продолжительность: 01:18:22

Треклист:

01. Let Me Love You (with Kim Sanders) [0:06:38.00]
02. Heartbeat [0:04:30.60]
03. Black (with Jette von Roth) [0:04:40.32]
04. Breathe (with September) [0:04:07.53]
05. Desire (with Xavier Naidoo) [0:03:59.12]
06. Fate (with Isis Gee) [0:03:55.64]
07. Everything (with Helen Boulding) [0:03:59.71]
08. Tired Of Being Alone (with Tarja Turunen) [0:04:00.58]
09. The Farthest (with Anna Maria Mьhe) [0:05:14.55]
10. Ile Aye (with Stephenie Coker) [0:02:36.11]
11. Lonely (with Damae) [0:03:44.29]
12. Zenith (with Klaus Schulze) [0:03:46.65]
13. Destiny (with Despina Vandi) [0:04:12.69]
14. Wunschtraum [0:04:31.39]
15. Porque te vas (with Ana Torroja) [0:04:27.11]
16. Tired (with Jaлl) [0:04:37.39]
17. Wehmut [0:04:06.00]
18. Forever (with Kim Sanders) [0:05:12.37]


Релиз группы:

Exact Audio Copy V0.99 prebeta 5 from 4. May 2009

EAC extraction logfile from 2. July 2010, 23:53

Schiller / Desire

Used drive : TSSTcorpCDDVDW SH-S202J Adapter: 0 ID: 0

Read mode : Secure
Utilize accurate stream : Yes
Defeat audio cache : Yes
Make use of C2 pointers : No

Read offset correction : 6
Overread into Lead-In and Lead-Out : No
Fill up missing offset samples with silence : Yes
Delete leading and trailing silent blocks : No
Null samples used in CRC calculations : Yes
Used interface : Native Win32 interface for Win NT & 2000

Used output format : User Defined Encoder
Selected bitrate : 128 kBit/s
Quality : High
Add ID3 tag : No
Command line compressor : C:\Program Files\Exact Audio Copy\Flac\flac.exe
Additional command line options : -8 -V %s

TOC of the extracted CD

Track | Start | Length | Start sector | End sector
---------------------------------------------------------
1 | 0:00.00 | 6:38.00 | 0 | 29849
2 | 6:38.00 | 4:30.60 | 29850 | 50159
3 | 11:08.60 | 4:40.32 | 50160 | 71191
4 | 15:49.17 | 4:07.53 | 71192 | 89769
5 | 19:56.70 | 3:59.12 | 89770 | 107706
6 | 23:56.07 | 3:55.64 | 107707 | 125395
7 | 27:51.71 | 3:59.71 | 125396 | 143391
8 | 31:51.67 | 4:00.58 | 143392 | 161449
9 | 35:52.50 | 5:14.55 | 161450 | 185054
10 | 41:07.30 | 2:36.11 | 185055 | 196765
11 | 43:43.41 | 3:44.29 | 196766 | 213594
12 | 47:27.70 | 3:46.65 | 213595 | 230609
13 | 51:14.60 | 4:12.69 | 230610 | 249578
14 | 55:27.54 | 4:31.39 | 249579 | 269942
15 | 59:59.18 | 4:27.11 | 269943 | 289978
16 | 64:26.29 | 4:37.39 | 289979 | 310792
17 | 69:03.68 | 4:06.00 | 310793 | 329242
18 | 73:09.68 | 5:12.37 | 329243 | 352679

Range status and errors

Selected range

Filename E:\музыка на торент 2\Schiller Schiller\Schiller - Desire.wav

Peak level 99.9 %
Range quality 100.0 %
Test CRC 71CD367E
Copy CRC 71CD367E
Copy OK

No errors occurred

AccurateRip summary
Track 1 accurately ripped (confidence 8) [EF555861]
Track 2 accurately ripped (confidence 7) [D6DB7974]
Track 3 accurately ripped (confidence 8) [0C895059]
Track 4 accurately ripped (confidence 8) [9C1556EE]
Track 5 accurately ripped (confidence 7) [DC663F4F]
Track 6 accurately ripped (confidence 8) [B0F4CFBD]
Track 7 accurately ripped (confidence 8) [BFFA7801]
Track 8 accurately ripped (confidence 8) [007F7D92]
Track 9 accurately ripped (confidence 7) [14D71916]
Track 10 accurately ripped (confidence 7) [222674AB]
Track 11 accurately ripped (confidence 8) [6CFAEFF0]
Track 12 accurately ripped (confidence 8) [3EC1D0DC]
Track 13 accurately ripped (confidence 8) [3A4E3465]
Track 14 accurately ripped (confidence 7) [2A06D77E]
Track 15 accurately ripped (confidence 8) [F824F887]
Track 16 accurately ripped (confidence 8) [C74AD88F]
Track 17 accurately ripped (confidence 8) [81978234]
Track 18 accurately ripped (confidence 8) [C3F3325B]
All tracks accurately ripped

End of status report
UDIOCHECKER v2.0 beta (build 457) - by Dester - opdester@freemail.hu
~~~~~~~~~~~~~~~~~~~~~~~~~~~~~~~~~~
-=== НЕ РЕДАКТИРУЙТЕ ЭТОТ ФАЙЛ! ===-

Путь: ...\Schiller Desire

1 -=- Schiller - Desire.flac -=- CDDA (100%)

123998324

Этот торрент недоступен для скачивания без регистрации, однако доступен по публичной magnet-ссылке (источники с публичных трекеров). Перед использованием ссылки прочтите, пожалуйста Пользовательское соглашение, а также как можно дольше оставайтесь на раздаче! Для того, чтобы скачать сам торрент-файл (который видит больше источников), а также для того, чтобы поблагодарить релизера, вам необходимо зарегистрироваться. Если регистрироваться лень - вы можете также попробовать скачать релиз по нашим партнерским ссылкам ниже. Кроме того, зарегистрированным пользователям не показывается всплывающая реклама при скачивании.

[underverse.su].t10857.torrent
Трекер: Зарегистрирован   [ 02.07.2010 20:11 ]  

Статус: проверено (by Bratok at 02.07.2010 20:13)
Поблагодарили: 2 человека
Тип торрента: публичный - доступные источники с открытых трекеров: 
Размер: 498 MB (занимает 0,11 DVDR, для записи нужно 1 болванка DVDR/RW)
 
 
Похожие темы
Форум Тема Автор Торрент Отв. Посл. сооб.
Traditional Electronic, Ambient, NewAge (New Age) Terry Oldfield & Carlos Garo - Sky Dancer (2017) [MP3, 320 kbps CBR] Darkferse
1 | 0

0 | 1468

7

16.05.2017 08:02

Traditional Electronic, Ambient, NewAge (New Age) Tsukinosora - Next Door (2012) [MP3, 320 kbps CBR] Jimmy
2 | 0

0 | 2220

5

19.12.2012 07:10

Traditional Electronic, Ambient, NewAge (New Age) kokohana - kokohana Ghibli Mix (2012) [MP3, 320 kbps CBR] Jimmy
0 | 0

0 | 2467

3

20.12.2012 05:00

Traditional Electronic, Ambient, NewAge (New Age) Karunesh - Colors of the East (2012) [MP3, 320 kbps CBR] Jimmy
2 | 0

0 | 2492

13

20.12.2012 05:05

Traditional Electronic, Ambient, NewAge (New Age) Кулай - Спроси у Солнца (2016) [MP3, 320 kbps] ANDRAKO
2 | 0

0 | 796

2

09.11.2016 12:45

Traditional Electronic, Ambient, NewAge (New Age) Дидюля & Chris Wonderful - Аквамарин (2017) [MP3, 320 kbps CBR] Serghanter
7 | 0

0 | 1897

23

23.04.2017 08:20

Traditional Electronic, Ambient, NewAge (New Age) Deuter - Bamboo Forest (2017) [MP3, 320 kbps CBR] Darkferse
0 | 0

0 | 1070

6

29.12.2017 09:38

Traditional Electronic, Ambient, NewAge (New Age) Wychazel - Cloud Forest Temple (2018) [MP3, 320 kbps CBR] Darkferse
0 | 0

0 | 858

7

02.07.2018 16:47

# Traditional Electronic, Ambient, NewAge (New Age) Deepthi - Valoa (2019) [MP3, 320 kbps CBR] chupakabra
0 | 0

0 | 424

5

24.04.2019 15:33

Traditional Electronic, Ambient, NewAge (Lossless) (New Age) Oliver Scheffner - Traum vom endlosen Himmel (2017) [FLAC (Tracks), lossless] Web Darkferse
1 | 0

0 | 1172

3

22.06.2017 00:04

dimdim80 Пол:Муж

14-Фев-2011 23:13

ГДЕ СИДЫ,РРРРРРРРРРР

добавлено спустя 24 минуты 39 секунд:

:lol:

25-Май-2018 15:49

Топик был перенесен из форума Traditional Electronic, Ambient, NewAge (Lossless) в форум Архив (HQ электронная музыка)


[cron robot]
 

Яндекс.Метрика powered by Sphinx


В Н И М А Н И Е
Сайт не распространяет и не хранит электронные версии произведений, а лишь бесплатно и без коммерческой выгоды (не требуя взамен платы,
SMS и т.д.) предоставляет доступ к создаваемому пользователями каталогу ссылок на торрент-файлы, которые содержат только списки хеш-сумм.
Убедительная просьба с жалобами обращаться напрямую к пользователю, разместившему торрент файл.

Вверх