Loading...
Error

Лига смеха 2018. (16). Зимний кубок. Часть 2 / Ліга сміху [07.12.2018, Юмористическое шоу, WEBRip 720p]

Статистика раздачи
Размер:  1,08 GB   |    Зарегистрирован:  10 месяцев   |    Скачан:  4 раза

Полного источника не было: 9 месяцев

Сидов:  0  |  0 KB/s  ]   Личеров:  0  |  0 KB/s  ]

* - сиды/пиры с внешних источников

   
 
Автор Сообщение

дядя1111 Пол:Муж

08-Дек-2018 12:42

Лига смеха 2018. (16). Зимний кубок. Часть 2 / Ліга сміху


Дата/Год выпуска: Эфир: 07.12.2018
Страна: Украина
Жанр: Юмористическое шоу
Продолжительность: 01:35:10
Перевод: Не требуется
Русские субтитры: нет

Оригинальная аудиодорожка: русский, украинский (~75/25)
Ведущий: Владимир Зеленский

Жюри: Ольга Полякова, Станислав Боклан, Юрий Ткач, Влад Яма, Евгений Кошевой, Игорь Ласточкин, Надя Дорофеева

Телеканал: 1+1
Описание: «Квартал 95» представляет юмористический проект «Лига cмеха», который закладывает основы нового молодежного движения в Украине. Теперь все желающие - СТЭМы, команды КВН и просто весёлые компании - могут попробовать свои силы и принять участие в чемпионате Украины по Юмору.

Доп. информация: "Квартал-95", "Драйв Продакшн"

Качество: WEBRip 720p
Формат: mp4
Видео: 1280x720 (16:9), 25 fps, Mpeg4 AVC ~1490 kbps
Аудио: 44,1 КГц, AАС, 2 ch, 128.00 kbps
KAZKA - Тимошенко ПЛАКАЛА - VIP Тернополь

НЕАДЕКВАТНЫЙ Сосед и Железный Ткач - Стадион Диброва

РОЗЫГРЫШ Евгения Кошевого - Луганская Сборная и Варвара Кошевая

Абсурд До Слез - Воробушек

Украинский Ответ Роботу Софии - Пошло Поехало

Приколы НЕ По Понятиям - Николь Кидман

НЕНАСТОЯЩИЙ Порошенко - Ветераны Космических Войск
Антитіла – LEGO
[pre]Полное имя : D:\Фильмы\ЗИМНИЙ КУБОК Лиги Смеха 2018, Часть 2 - выпуск от 07.12.2018.mp4
Формат : MPEG-4
Профиль формата : Base Media / Version 2
Идентификатор кодека : mp42 (isom/mp42)
Размер файла : 1,08 Гбайт
Продолжительность : 1 ч. 35 м.
Режим общего битрейта : Переменный
Общий поток : 1621 Кбит/сек
Дата кодирования : UTC 2018-12-07 18:35:32
Дата пометки : UTC 2018-12-07 18:35:32
gsst : 0
gstd : 5710135

Видео
Идентификатор : 1
Формат : AVC
Формат/Информация : Advanced Video Codec
Профиль формата : Main@L3.1
Настройки формата : CABAC / 3 Ref Frames
Параметр CABAC формата : Да
Параметр RefFrames формата : 3 кадра
Идентификатор кодека : avc1
Идентификатор кодека/Информация : Advanced Video Coding
Продолжительность : 1 ч. 35 м.
Битрейт : 1490 Кбит/сек
Ширина : 1280 пикселей
Высота : 720 пикселей
Соотношение сторон : 16:9
Режим частоты кадров : Постоянный
Частота кадров : 25,000 кадров/сек
Цветовое пространство : YUV
Субдискретизация насыщенности : 4:2:0
Битовая глубина : 8 бит
Тип развёртки : Прогрессивная
Бит/(Пиксели*Кадры) : 0.065
Размер потока : 1014 Мбайт (92%)
Заголовок : ISO Media file produced by Google Inc. Created on: 12/07/2018.
Дата кодирования : UTC 2018-12-07 18:35:32
Дата пометки : UTC 2018-12-07 18:35:32
Цветовой диапазон : Limited
Основные цвета : BT.709
Характеристики трансфера : BT.709
Коэффициенты матрицы : BT.709
Codec configuration box : avcC

Аудио
Идентификатор : 2
Формат : AAC LC
Формат/Информация : Advanced Audio Codec Low Complexity
Идентификатор кодека : mp4a-40-2
Продолжительность : 1 ч. 35 м.
Вид битрейта : Переменный
Битрейт : 128 Кбит/сек
Каналы : 2 канала
Channel layout : L R
Частота : 44,1 КГц
Частота кадров : 43,066 кадра/сек (1024 SPF)
Метод сжатия : С потерями
Размер потока : 87,1 Мбайт (8%)
Заголовок : ISO Media file produced by Google Inc. Created on: 12/07/2018.
Язык : English
Дата кодирования : UTC 2018-12-07 18:35:32
Дата пометки : UTC 2018-12-07 18:35:32[/pre]

Этот торрент недоступен для скачивания без регистрации, однако доступен по публичной magnet-ссылке (источники с публичных трекеров). Перед использованием ссылки прочтите, пожалуйста Пользовательское соглашение, а также как можно дольше оставайтесь на раздаче! Для того, чтобы скачать сам торрент-файл (который видит больше источников), а также для того, чтобы поблагодарить релизера, вам необходимо зарегистрироваться. Если регистрироваться лень - вы можете также попробовать скачать релиз по нашим партнерским ссылкам ниже. Кроме того, зарегистрированным пользователям не показывается всплывающая реклама при скачивании.

[underverse.name].t121340.torrent
Трекер: Зарегистрирован   [ 08.12.2018 12:42 ]  

Статус: проверено (by Паукан at 08.12.2018 15:04)
Поблагодарили: 1 человек
Тип торрента: публичный - доступные источники с открытых трекеров: 
Размер: 1,08 GB (занимает 0,25 DVDR, для записи нужно 1 болванка DVDR/RW)
 
 
Похожие темы
Форум Тема Автор Торрент Отв. Посл. сооб.
Телепередачи и шоу Лига смеха 2019. (03). Вторая игра / Ліга сміху [22.03.2019, Юмористическое шоу, WEBRip 720p] дядя1111
10 | 0

0 | 174

3

23.03.2019 07:23

Телепередачи и шоу Лига смеха 2018. (10). Летний кубок. Часть 1 / Ліга сміху [05.10.2018, Юмористическое шоу, WEBRip 720p] дядя1111
0 | 0

0 | 509

4

07.10.2018 07:50

Телепередачи и шоу Лига смеха 2018. (01). Фестиваль в Одессе, часть 1 / Ліга сміху [02.03.2018, Юмористическое шоу, WEB-DL 1080p] дядя1111
2 | 0

0 | 630

4

01.10.2018 10:11

Телепередачи и шоу Лига смеха 2018. (01). Фестиваль в Одессе, часть 2 / Ліга сміху [09.03.2018, Юмористическое шоу, WEB-DL 1080p] дядя1111
1 | 1

0 | 671

3

01.10.2018 10:13

Телепередачи и шоу Лига смеха 2018. (02). Первая игра / Ліга сміху [16.03.2018, Юмористическое шоу, WEB-DL 1080p] дядя1111
5 | 0

0 | 643

3

01.10.2018 10:15

Телепередачи и шоу Лига смеха 2018. (03). Вторая игра / Ліга сміху [23.03.2018, Юмористическое шоу, WEB-DL 1080p] дядя1111
5 | 0

0 | 612

3

01.10.2018 10:16

Телепередачи и шоу Лига смеха 2018. (04). Третья игра / Ліга сміху [30.03.2018, Юмористическое шоу, WEB-DL 1080p] дядя1111
11 | 0

0 | 596

3

01.10.2018 10:18

Телепередачи и шоу Лига смеха 2018. (05). Четвертая игра / Ліга сміху [06.04.2018, Юмористическое шоу, WEB-DL 1080p] дядя1111
10 | 1

0 | 605

2

01.10.2018 10:20

Телепередачи и шоу Лига смеха 2018. (06). Пятая игра / Ліга сміху [13.04.2018, Юмористическое шоу, WEB-DL 1080p] дядя1111
6 | 2

0 | 625

3

01.10.2018 10:22

Телепередачи и шоу Лига смеха 2018. (07). Шестая игра / Ліга сміху [20.04.2018, Юмористическое шоу, WEB-DL 1080p] дядя1111
7 | 1

0 | 629

4

01.10.2018 10:24

20-Мар-2019 22:30

Топик был перенесен из форума Телепередачи и шоу в форум Архив (телешоу)


[cron robot]
 

Яндекс.Метрика powered by Sphinx


В Н И М А Н И Е
Сайт не распространяет и не хранит электронные версии произведений, а лишь бесплатно и без коммерческой выгоды (не требуя взамен платы,
SMS и т.д.) предоставляет доступ к создаваемому пользователями каталогу ссылок на торрент-файлы, которые содержат только списки хеш-сумм.
Убедительная просьба с жалобами обращаться напрямую к пользователю, разместившему торрент файл.

Вверх