Loading...
Error

(Classical) Моцарт - Реквием / Mozart - Requiem (1990) [FLAC (Tracks+.CUE), lossless]

Статистика раздачи
Размер:  287 MB   |    Зарегистрирован:  7 лет 8 месяцев   |    Скачан:  52 раза

Полного источника не было: 17 часов

Сидов:  0  |  0 KB/s  ]   Личеров:  0  |  0 KB/s  ]

* - сиды/пиры с внешних источников

   
 
Автор Сообщение

M-i-i-i-ke Пол:Муж

09-Июл-2010 09:15

Моцарт - Реквием / Mozart - Requiem

Жанр: Classical
Год выпуска: 1990
Производитель диска: Deutsche Grammophon
Аудиокодек: FLAC
Тип рипа: Tracks+.CUE
Битрейт аудио: lossless
Продолжительность: 01:04:24

Треклист:

1. Introitus: Requiem/ Kyrie
2. Sequentia: Dies irae
3. Sequentia: Tuba mirum
4. Sequentia: Rex tremendae
5. Sequentia: Recordare
6. Sequentia: Confutatis
7. Sequentia: Lacrimosa
8. Offertorium: Domine Jesu
9. Offertorium: Hostias
10. Sanctus
11. Benedictus
12. Agnus Dei/Lux aeterna

Исполнители:
Edith Mathis - сопрано
Julia Hamari - контральто
Wieslaw Ochman - тенор
Karl Ridderbusch - бас
Хор: Konzertvereinigung Wiener Staatsopernchor
Оркестр: Wiener Philharmoniker
Дирижер: Karl Böhm

EAC extraction logfile from 1. August 2009, 12:51 for CD
Karl Böhm, Wiener Philharmoniker / Mozart: Requiem d-moll, KV.626

Used drive : TSSTcorpDVD+-RW TS-L632H Adapter: 1 ID: 0
Read mode : Secure with NO C2, accurate stream, disable cache
Read offset correction : 6
Overread into Lead-In and Lead-Out : No

Used output format : C:\Soft Audio\FLAC\flac.exe (User Defined Encoder)
128 kBit/s
Additional command line options : -V -8 -T "artist=%a" -T "title=%t" -T "album=%g" -T "date=%y" -T "tracknumber=%n" -T "genre=%m" %s

Other options :
Fill up missing offset samples with silence : Yes
Delete leading and trailing silent blocks : No
Native Win32 interface for Win NT & 2000

Track 1
Filename F:\Music\Karl Böhm, Wiener Philharmoniker - Mozart- Requiem d-moll, KV.626\01 - Requiem Kyrie.wav

Pre-gap length 0:00:02.33

Peak level 76.0 %
Track quality 100.0 %
Test CRC 38ABEA81
Copy CRC 38ABEA81
Copy OK

Track 2
Filename F:\Music\Karl Böhm, Wiener Philharmoniker - Mozart- Requiem d-moll, KV.626\02 - Dies Irae.wav

Peak level 67.0 %
Track quality 99.9 %
Test CRC 83F52BC8
Copy CRC 83F52BC8
Copy OK

Track 3
Filename F:\Music\Karl Böhm, Wiener Philharmoniker - Mozart- Requiem d-moll, KV.626\03 - Tuba Mirum.wav

Pre-gap length 0:00:02.00

Peak level 41.7 %
Track quality 100.0 %
Test CRC BD815894
Copy CRC BD815894
Copy OK

Track 4
Filename F:\Music\Karl Böhm, Wiener Philharmoniker - Mozart- Requiem d-moll, KV.626\04 - Rex Tremendae.wav

Pre-gap length 0:00:01.30

Peak level 75.4 %
Track quality 100.0 %
Test CRC 140DD006
Copy CRC 140DD006
Copy OK

Track 5
Filename F:\Music\Karl Böhm, Wiener Philharmoniker - Mozart- Requiem d-moll, KV.626\05 - Recordare.wav

Pre-gap length 0:00:02.52

Peak level 53.7 %
Track quality 100.0 %
Test CRC 1977FE44
Copy CRC 1977FE44
Copy OK

Track 6
Filename F:\Music\Karl Böhm, Wiener Philharmoniker - Mozart- Requiem d-moll, KV.626\06 - Confutatis.wav

Pre-gap length 0:00:01.70

Peak level 68.0 %
Track quality 100.0 %
Test CRC BDDA7B95
Copy CRC BDDA7B95
Copy OK

Track 7
Filename F:\Music\Karl Böhm, Wiener Philharmoniker - Mozart- Requiem d-moll, KV.626\07 - Lacrimosa.wav

Peak level 71.8 %
Track quality 100.0 %
Test CRC F1F75E6D
Copy CRC F1F75E6D
Copy OK

Track 8
Filename F:\Music\Karl Böhm, Wiener Philharmoniker - Mozart- Requiem d-moll, KV.626\08 - Domine Jesu.wav

Peak level 68.5 %
Track quality 100.0 %
Test CRC 63778B73
Copy CRC 63778B73
Copy OK

Track 9
Filename F:\Music\Karl Böhm, Wiener Philharmoniker - Mozart- Requiem d-moll, KV.626\09 - Hostias.wav

Pre-gap length 0:00:01.25

Peak level 72.9 %
Track quality 99.9 %
Test CRC 3287C2E5
Copy CRC 3287C2E5
Copy OK

Track 10
Filename F:\Music\Karl Böhm, Wiener Philharmoniker - Mozart- Requiem d-moll, KV.626\10 - Sanctus.wav

Pre-gap length 0:00:01.30

Peak level 73.6 %
Track quality 100.0 %
Test CRC 66E5D021
Copy CRC 66E5D021
Copy OK

Track 11
Filename F:\Music\Karl Böhm, Wiener Philharmoniker - Mozart- Requiem d-moll, KV.626\11 - Benedictus.wav

Pre-gap length 0:00:01.07

Peak level 57.1 %
Track quality 99.9 %
Test CRC 3C266CC0
Copy CRC 3C266CC0
Copy OK

Track 12
Filename F:\Music\Karl Böhm, Wiener Philharmoniker - Mozart- Requiem d-moll, KV.626\12 - Agnus Dei Lux Aeterna.wav

Pre-gap length 0:00:00.50

Peak level 75.8 %
Track quality 100.0 %
Test CRC 0C047A61
Copy CRC 0C047A61
Copy OK

No errors occured

End of status report

Этот торрент недоступен для скачивания без регистрации, однако доступен по публичной magnet-ссылке (источники с публичных трекеров). Перед использованием ссылки прочтите, пожалуйста Пользовательское соглашение, а также как можно дольше оставайтесь на раздаче! Для того, чтобы скачать сам торрент-файл (который видит больше источников), а также для того, чтобы поблагодарить релизера, вам необходимо зарегистрироваться. Если регистрироваться лень - вы можете также попробовать скачать релиз по нашим партнерским ссылкам ниже. Кроме того, зарегистрированным пользователям не показывается всплывающая реклама при скачивании.

[underverse.su].t30698.torrent
Трекер: Зарегистрирован   [ 07.09.2013 16:09 ]  

Статус: проверено (by Бишеп at 07.09.2013 16:09)
Поблагодарили: 5 человек
Тип торрента: публичный - доступные источники с открытых трекеров: 
Размер: 287 MB (занимает 0,06 DVDR, для записи нужно 1 болванка DVDR/RW)
 
 
Похожие темы
Форум Тема Автор Торрент Отв. Посл. сооб.
Сборники Pop, Disco, Dance (Classical, Piano) VA - Piano Covers: 14 Beautiful Piano Arrangements Of Pop Hits (2019) [MP3, 320 kbps CBR] 90ytr90
2 | 0

0 | 565

19

14.09.2019 07:27

Сборники Pop, Disco, Dance (Classical, Easy Listening, Jazz, Score, Ballad) VA - The Sound Of Musicals The Ultimate Collection (Box Set, 5CD) (2019) [MP3, 320 kbps CBR] Magnat
0 | 0

0 | 572

6

28.10.2019 11:46

Вокальные и хоровые искусства (Classical) Jamie Barton - All Who Wander (Mahler, Dvorak, Sibelius; Zeger) (2016) [MP3, 320 kbps CBR] Darkferse
1 | 0

0 | 1713

7

04.09.2017 21:29

Вокальные и хоровые искусства (Classical, Romantic) Elina Garanca, Orquestra de la Comunitat Valenciana, Roberto Abbado - Revive (2016) [MP3, 320 kbps CBR] Darkferse
0 | 0

0 | 1609

5

04.09.2017 21:42

Вокальные и хоровые искусства (Classical) Khoren Mekanejian - Khorenian Divine Liturgy (Choir of St. Gregory the Illuminator Cathedral) (2017) [MP3, 320 kbps CBR] Darkferse
0 | 1

0 | 1501

4

04.09.2017 22:35

Оркестровая музыка (Classical) Прокофьев - Complete Symphonies/Полное собрание Симфоний [Валерий Гергиев, London Symphony Orchestra] (2006) [MP3, 320 kbps] Jimmy
1 | 0

0 | 3909

28

18.12.2013 17:55

Оркестровая музыка (Classical) Прокофьев - Complete Piano Concertos/Полное собрание Концертов для фортепиано [Александр Торадзе, Валерий Гергиев] (1997) [MP3, 320 kbps] Jimmy
0 | 0

0 | 3968

19

19.12.2013 16:52

Оркестровая музыка (Classical) Beethoven/Бетховен - Complete Symphonies and Piano Concertos/Полное собрание Симфоний и Концертов для фортепиано [Otto Klemperer, Daniel Barenboim] (2000) [MP3, 320 kbps] Jimmy
1 | 3

0 | 4823

38

24.12.2013 15:37

Оркестровая музыка (Classical) Шостакович - Полное собрание Симфоний / Complete Symphonies (Василий Петренко / Vasily Petrenko) (2015) [MP3, 320 kbps CBR] Darkferse
1 | 0

0 | 1589

17

28.12.2017 00:17

Камерная и инструментальная музыка (Classical) Вольфганг Амадей Моцарт / Wolfgang Amadeus Mozart - Romantic Classic (1999) [MP3, 320 kbps CBR] terra07
3 | 0

1 | 5539

83

13.04.2015 16:28

Yurkin27 Пол:Муж

09-Фев-2012 11:10

раздача прекратилась? :(

Dimasik26str Пол:Муж

24-Июн-2012 13:03

Это первое, что я хотел скачать, вернитесь на раздачу, пожалуйста.

Бишеп Пол:Муж

07-Сен-2013 16:10

Торрент файл обновлён.

Яндекс.Метрика powered by Sphinx


В Н И М А Н И Е
Сайт не распространяет и не хранит электронные версии произведений, а лишь бесплатно и без коммерческой выгоды (не требуя взамен платы,
SMS и т.д.) предоставляет доступ к создаваемому пользователями каталогу ссылок на торрент-файлы, которые содержат только списки хеш-сумм.
Убедительная просьба с жалобами обращаться напрямую к пользователю, разместившему торрент файл.

Вверх