Loading...
Error

Ирина Шипилова - Английский от А до Я [часть 1] [2017 г., лингвистика, английский язык, CamRip]

Статистика раздачи
Размер:  1,66 GB   |    Зарегистрирован:  1 год 4 месяца   |    Скачан:  40 раз

Полного источника не было: 13 часов

Сидов:  0  |  0 KB/s  ]   Личеров:  0  |  0 KB/s  ]

* - сиды/пиры с внешних источников

   
 
Автор Сообщение

Паукан Пол:Муж

28-Фев-2019 19:36

Ирина Шипилова - Английский от А до Я [часть 1] (2017) CamRip [H.264]

Автор (режиссер): Ирина Шипилова
Жанр: Лингвистика, английский язык

Описание:
Это первая часть из 10 видео уроков, полный курс состоит из 100 видео. Каждое видео построено точно также как и на уроке с репетитором. Курс рассчитан примерно на четыре месяца обучения.

Продолжительность: 06:31:08
Качество видео: CamRip

Видео: AVC/H.264, 854x480, ~435 Kbps
Аудио: AAC, 2 ch, 126 Kbps
 
Общее Ирина Шипилова | Английский от А до Я [часть 1] (2017)
Полное имя mp4
Формат : MPEG-4
Профиль формата : Base Media
Идентификатор кодека : isom (isom/iso2/avc1/mp41)
Размер файла : 175 Мбайт
Продолжительность : 43 м. 9 с.
Общий поток : 568 Кбит/сек
Программа кодирования : Lavf56.40.101

Видео
Идентификатор : 1
Формат : AVC
Формат/Информация : Advanced Video Codec
Профиль формата : Main@L3.1
Настройки формата : CABAC / 1 Ref Frames
Параметр CABAC формата : Да
Параметр RefFrames формата : 1 кадр
Идентификатор кодека : avc1
Идентификатор кодека/Информация : Advanced Video Coding
Продолжительность : 43 м. 9 с.
Битрейт : 435 Кбит/сек
Ширина : 854 пикселя
Высота : 480 пикселей
Соотношение сторон : 16:9
Режим частоты кадров : Переменный
Частота кадров : 29,970 кадров/сек
Минимальная частота кадров : 29,674 кадров/сек
Максимальная частота кадров : 30,581 кадров/сек
Цветовое пространство : YUV
Субдискретизация насыщенности : 4:2:0
Битовая глубина : 8 бит
Тип развёртки : Прогрессивная
Бит/(Пиксели*Кадры) : 0.035
Размер потока : 134 Мбайт (77%)
Цветовой диапазон : Limited
Основные цвета : BT.709
Характеристики трансфера : BT.709
Коэффициенты матрицы : BT.709
Codec configuration box : avcC

Аудио
Идентификатор : 2
Формат : AAC LC
Формат/Информация : Advanced Audio Codec Low Complexity
Идентификатор кодека : mp4a-40-2
Продолжительность : 43 м. 9 с.
Вид битрейта : Постоянный
Битрейт : 126 Кбит/сек
Каналы : 2 канала
Channel layout : L R
Частота : 44,1 КГц
Частота кадров : 43,066 кадра/сек (1024 SPF)
Метод сжатия : С потерями
Размер потока : 38,8 Мбайт (22%)
Default : Да
AlternateGroup/String : 1

Скриншоты:
picpicpicpic

Этот торрент недоступен для скачивания без регистрации, однако доступен по публичной magnet-ссылке (источники с публичных трекеров). Перед использованием ссылки прочтите, пожалуйста Пользовательское соглашение, а также как можно дольше оставайтесь на раздаче! Для того, чтобы скачать сам торрент-файл (который видит больше источников), а также для того, чтобы поблагодарить релизера, вам необходимо зарегистрироваться. Если регистрироваться лень - вы можете также попробовать скачать релиз по нашим партнерским ссылкам ниже. Кроме того, зарегистрированным пользователям не показывается всплывающая реклама при скачивании.

[underverse.name].t127598.torrent
Трекер: Зарегистрирован   [ 28.02.2019 19:36 ]  

Статус: проверено (by Паукан at 28.02.2019 19:36)
Поблагодарили: 2 человека
Тип торрента: публичный - доступные источники с открытых трекеров: 
Размер: 1,66 GB (занимает 0,38 DVDR, для записи нужно 1 болванка DVDR/RW)
 
 
Похожие темы
Форум Тема Автор Торрент Отв. Посл. сооб.
Обучение иностранным языкам Ирина Шипилова - Английский от А до Я (2018) + Курс «от А до Я» Интенсив 1 [2020 г., английский язык, PCRec] Паукан
69 | 7

0 | 529

5

25.06.2020 16:55


Яндекс.Метрика powered by Sphinx


В Н И М А Н И Е
Сайт не распространяет и не хранит электронные версии произведений, а лишь бесплатно и без коммерческой выгоды (не требуя взамен платы,
SMS и т.д.) предоставляет доступ к создаваемому пользователями каталогу ссылок на торрент-файлы, которые содержат только списки хеш-сумм.
Убедительная просьба с жалобами обращаться напрямую к пользователю, разместившему торрент файл.

Вверх