Loading...
Error

Любовь в городе ангелов (Евгений Вихарев) [2017 г., комедия, мелодрама, BDRemux 1080p] [GER Transfer]

Статистика раздачи
Размер:  11,81 GB   |    Зарегистрирован:  1 год 4 месяца   |    Скачан:  7 раз

Полного источника не было: 6 месяцев

Сидов:  0  |  0 KB/s  ]   Личеров:  0  |  0 KB/s  ]

* - сиды/пиры с внешних источников

   
 
Автор Сообщение

90ytr90 

23-Мар-2019 14:10

Любовь в городе ангелов
«Не упусти свою любовь!»

Страна: Россия, Большое кино
Год выпуска: 2017
Жанр: комедия, мелодрама
Продолжительность: 01:21:22
Озвучивание: оригинальная звуковая дорожка [лицензия]
Режиссёр: Евгений Вихарев

В ролях:
Наталья Рудова, Микаэл Арамян, Андрей Свиридов, Константин Лавыш


Сюжет фильма:
В Лос Анджелесе, в самом романтичном городе в мире, встретились два самых неромантичных человека — она на первом свидании выбросила его букет в помойку, а он поил ее самым невкусным кофе в городе. Она пришла на второе свидание в одном нижнем белье, а он обманул ее, так и не решившись безрассудно своровать для нее платье в магазине. И тем не менее, это были самые красивые несколько дней в жизни каждого из них.

  • Дата мировой премьеры: 29 сентября 2017
  • Дата российской премьеры: 28 сентября 2017, «Каропрокат»
         
Качество видео: BDRemux 1080p [GER Transfer]
Формат: MKV
Видео: MPEGvideo, 1920x1080 (16:9), 17.7 Mbps, 25 Mbps, 24 fps, 0.356 bit/pixel
Аудио #1: AC3, 640 kbps, 6 ch, 48 kHz, Original [лицензия]
Аудио #2: DTS HD-MA, 2410 kbps, 6 ch, 48 kHz, Original [лицензия]
Навигация по главам: есть (9)

Сборка: Ivantsov

Код:

Общее
Уникальный идентификатор                 : 198902629861448807891700632842679736369 (0x95A340CA4B215BE9D2CE1CC16551D831)
Полное имя                               : Lyubov.v.Gorode.Angelov.2017.IVA.ExKinoRay.mkv
Формат                                   : Matroska
Версия формата                           : Version 4
Размер файла                             : 11,8 Гбайт
Продолжительность                        : 1 ч. 21 м.
Режим общего битрейта                    : Переменный
Общий поток                              : 20,8 Мбит/сек
Название фильма                          : Любовь в городе ангелов ( 2017 )
Дата кодирования                         : UTC 2019-03-23 12:09:01
Программа кодирования                    : mkvmerge v32.0.0 ('Astral Progressions') 64-bit
Библиотека кодирования                   : libebml v1.3.7 + libmatroska v1.5.0
Обложка                                  : Yes
Attachments                              : cover

Видео
Идентификатор                            : 1
Формат                                   : MPEG Video
Версия формата                           : Version 2
Профиль формата                          : Main@High
Настройки формата                        : CustomMatrix / BVOP
Параметр BVOP формата                    : Да
Параметр матрицы формата                 : Выборочная
Параметр GOP формата                     : M=3, N=15
Идентификатор кодека                     : V_MPEG2
Идентификатор кодека/Информация          : MPEG 1 or 2 Video
Продолжительность                        : 1 ч. 21 м.
Вид битрейта                             : Переменный
Битрейт                                  : 17,7 Мбит/сек
Максимальный битрейт                     : 25,0 Мбит/сек
Ширина                                   : 1920 пикселей
Высота                                   : 1080 пикселей
Соотношение сторон                       : 16:9
Режим частоты кадров                     : Постоянный
Частота кадров                           : 24,000 кадра/сек
Цветовое пространство                    : YUV
Субдискретизация насыщенности            : 4:2:0
Битовая глубина                          : 8 бит
Тип развёртки                            : Прогрессивная
Метод сжатия                             : С потерями
Бит/(Пиксели*Кадры)                      : 0.356
Временной код первого кадра              : 00:00:00:00
Оригинал временного кода                 : Group of pictures header
GOP, открыто/закрыто                     : Закрыто
Размер потока                            : 10,1 Гбайт (85%)
Язык                                     : Russian
Default                                  : Да
Forced                                   : Нет

Аудио #1
Идентификатор                            : 2
Формат                                   : AC-3
Формат/Информация                        : Audio Coding 3
Коммерческое название                    : Dolby Digital
Идентификатор кодека                     : A_AC3
Продолжительность                        : 1 ч. 21 м.
Вид битрейта                             : Постоянный
Битрейт                                  : 640 Кбит/сек
Каналы                                   : 6 каналов
Channel layout                           : L R C LFE Ls Rs
Частота                                  : 48,0 КГц
Частота кадров                           : 31,250 кадров/сек (1536 SPF)
Битовая глубина                          : 16 бит
Метод сжатия                             : С потерями
Размер потока                            : 372 Мбайт (3%)
Язык                                     : Russian
ServiceKind                      : Complete Main
Default                                  : Да
Forced                                   : Нет

Аудио #2
Идентификатор                            : 3
Формат                                   : DTS XLL
Формат/Информация                        : Digital Theater Systems
Коммерческое название                    : DTS-HD Master Audio
Идентификатор кодека                     : A_DTS
Продолжительность                        : 1 ч. 21 м.
Вид битрейта                             : Переменный
Битрейт                                  : 2410 Кбит/сек
Каналы                                   : 6 каналов
Channel layout                           : C L R Ls Rs LFE
Частота                                  : 48,0 КГц
Частота кадров                           : 93,750 кадра/сек (512 SPF)
Битовая глубина                          : 24 бит
Метод сжатия                             : Без потерь
Размер потока                            : 1,37 Гбайт (12%)
Язык                                     : Russian
Default                                  : Нет
Forced                                   : Нет

Меню
00:00:00.000                             : ru:01
00:11:10.000                             : ru:02
00:21:33.000                             : ru:03
00:29:26.000                             : ru:04
00:39:33.000                             : ru:05
00:49:53.000                             : ru:06
01:00:23.000                             : ru:07
01:09:21.000                             : ru:08
01:18:19.000                             : ru:09


pic pic pic pic pic pic

Этот торрент недоступен для скачивания без регистрации, однако доступен по публичной magnet-ссылке (источники с публичных трекеров). Перед использованием ссылки прочтите, пожалуйста Пользовательское соглашение, а также как можно дольше оставайтесь на раздаче! Для того, чтобы скачать сам торрент-файл (который видит больше источников), а также для того, чтобы поблагодарить релизера, вам необходимо зарегистрироваться. Если регистрироваться лень - вы можете также попробовать скачать релиз по нашим партнерским ссылкам ниже. Кроме того, зарегистрированным пользователям не показывается всплывающая реклама при скачивании.

[underverse.name].t129196.torrent
Трекер: Зарегистрирован   [ 23.03.2019 14:10 ]  

Статус: проверено (by 90ytr90 at 21.11.2019 23:31)
Поблагодарили: пока никто не поблагодарил...
Тип торрента: публичный - доступные источники с открытых трекеров: 
Размер: 11,81 GB (занимает 2,7 DVDR, для записи нужно 3 болванки DVDR/RW)
 
 
Похожие темы
Форум Тема Автор Торрент Отв. Посл. сооб.
Наше кино [DVDRip, Low-Res HDRip, и т.д.] Любовь в городе ангелов (Евгений Вихарев) [2017 г., комедия, мелодрама, BDRip] [GER Transfer] 90ytr90
3 | 0

0 | 294

13

24.03.2019 14:38

T Наше кино [HDDVDRip / BDRip / WEB-DL / HDTV 1080/720р] Любовь в городе ангелов (Евгений Вихарев) [2017 г., комедия, WEB-DL 1080p] makkol
1 | 0

0 | 844

19

28.10.2017 14:26

bigz Пол:Муж

23-Мар-2019 20:28

без рекламы?

Яндекс.Метрика powered by Sphinx


В Н И М А Н И Е
Сайт не распространяет и не хранит электронные версии произведений, а лишь бесплатно и без коммерческой выгоды (не требуя взамен платы,
SMS и т.д.) предоставляет доступ к создаваемому пользователями каталогу ссылок на торрент-файлы, которые содержат только списки хеш-сумм.
Убедительная просьба с жалобами обращаться напрямую к пользователю, разместившему торрент файл.

Вверх