Loading...
Error

Клятва / Pledge (Дэниэл Роббинс) [2018 г., ужасы, триллер, BDRemux 1080p] Original (Eng, Ger)

Статистика раздачи
Размер:  12,32 GB   |    Зарегистрирован:  4 месяца 19 дней   |    Скачан:  0 раз
Сидов:  1  |  0 KB/s  ]   Личеров:  0  |  0 KB/s  ]

* - сиды/пиры с внешних источников

   
 
Автор Сообщение

sss_555 

03-Май-2019 17:24

Клятва / Pledge


Год выпуска: 2018
Жанр: ужасы, триллер
Страна: США
Режиссер: Дэниэл Роббинс
В ролях: Закари Бёрд, Филлип Андре Ботельо, Аарон Далла Вилла, Зак Уэйнер, Эрика Бузер, Камерон Копертуэйт, Джесси Пиментел, Жан-Луи Друлерс, Джо Галлахер, Мелани Ротман
Сюжет фильма:
Первокурсники Этан, Джастин и Дэвид всеми силами стараются улучшить свою репутацию, мечтая стать членами престижного студенческого братства. Когда все популярные ученические сообщества отказывают главным героям, им неожиданно улыбается удача: маленькое и закрытое братство предлагает им членство в клубе, которое дает эксклюзивный доступ к миру ярких вечеринок, проходящих на территории кампуса. Но сначала первокурсникам предстоит пройти таинственный ритуал посвящения, который превращается в 48-часовую борьбу за жизнь…

       
  • Мировая премьера: 24 июля 2018

Качество видео: BDRemux 1080p

Продолжительность: 01:17:27
Формат: MKV
Видео: x264, 1920x1080, 17867 kbps
Аудио 1: немецкий, оригинал, DTS 5.1, 2 114 kbps
Аудио 2: английский, оригинал, DTS 5.1, 2 795 kbps

Код:

General
Unique ID                                : 218932745226936326505479697591359910954 (0xA4B4E9B950DD22F1008FAA1F60A2342A)
Complete name                            : Pledge.2019.1080p.BluRay.AVC.DTS-HD MA 5.1-OMEGA.mkv.mkv
Format                                   : Matroska
Format version                           : Version 2
File size                                : 12.3 GiB
Duration                                 : 1 h 17 min
Overall bit rate mode                    : Variable
Overall bit rate                         : 22.8 Mb/s
Encoded date                             : UTC 2019-04-30 23:53:28
Writing application                      : MakeMKV v1.14.2 win(x64-release)
Writing library                          : libmakemkv v1.14.2 (1.3.5/1.4.7) win(x64-release)

Video
ID                                       : 1
ID in the original source medium         : 4113 (0x1011)
Format                                   : MPEG Video
Format version                           : Version 2
Format profile                           : Main@High
Format settings                          : CustomMatrix / BVOP
Format settings, BVOP                    : Yes
Format settings, Matrix                  : Custom
Format settings, GOP                     : M=3, N=15
Codec ID                                 : V_MPEG2
Codec ID/Info                            : MPEG 1 or 2 Video
Duration                                 : 1 h 17 min
Bit rate mode                            : Variable
Bit rate                                 : 17.9 Mb/s
Maximum bit rate                         : 25.0 Mb/s
Width                                    : 1 920 pixels
Height                                   : 1 080 pixels
Display aspect ratio                     : 16:9
Frame rate mode                          : Constant
Frame rate                               : 23.976 (24000/1001) FPS
Color space                              : YUV
Chroma subsampling                       : 4:2:0
Bit depth                                : 8 bits
Scan type                                : Progressive
Compression mode                         : Lossy
Bits/(Pixel*Frame)                       : 0.359
Time code of first frame                 : 00:00:00:00
Time code source                         : Group of pictures header
GOP, Open/Closed                         : Closed
Stream size                              : 9.66 GiB (78%)
Language                                 : English
Default                                  : No
Forced                                   : No
Original source medium                   : Blu-ray

Audio #1
ID                                       : 2
ID in the original source medium         : 4352 (0x1100)
Format                                   : DTS XLL
Format/Info                              : Digital Theater Systems
Commercial name                          : DTS-HD Master Audio
Codec ID                                 : A_DTS
Duration                                 : 1 h 17 min
Bit rate mode                            : Variable
Bit rate                                 : 2 114 kb/s
Channel(s)                               : 6 channels
Channel layout                           : C L R Ls Rs LFE
Sampling rate                            : 48.0 kHz
Frame rate                               : 93.750 FPS (512 SPF)
Bit depth                                : 24 bits
Compression mode                         : Lossless
Stream size                              : 1.14 GiB (9%)
Title                                    : Surround 5.1
Language                                 : German
Default                                  : Yes
Forced                                   : No
Original source medium                   : Blu-ray

Audio #2
ID                                       : 3
ID in the original source medium         : 4353 (0x1101)
Format                                   : DTS XLL
Format/Info                              : Digital Theater Systems
Commercial name                          : DTS-HD Master Audio
Codec ID                                 : A_DTS
Duration                                 : 1 h 17 min
Bit rate mode                            : Variable
Bit rate                                 : 2 795 kb/s
Channel(s)                               : 6 channels
Channel layout                           : C L R Ls Rs LFE
Sampling rate                            : 48.0 kHz
Frame rate                               : 93.750 FPS (512 SPF)
Bit depth                                : 24 bits
Compression mode                         : Lossless
Stream size                              : 1.51 GiB (12%)
Title                                    : Surround 5.1
Language                                 : English
Default                                  : No
Forced                                   : No
Original source medium                   : Blu-ray

Menu
00:00:00.000                             : de:Chapter 01
00:10:41.849                             : de:Chapter 02
00:21:00.801                             : de:Chapter 03
00:31:02.652                             : de:Chapter 04
00:39:11.766                             : de:Chapter 05
00:48:05.924                             : de:Chapter 06
00:57:56.848                             : de:Chapter 07
01:06:14.845                             : de:Chapter 08
01:15:05.959                             : de:Chapter 09

picpicpicpic
Для увеличения картинки щелкните мышкой по превью

Этот торрент недоступен для скачивания без регистрации, однако доступен по публичной magnet-ссылке (источники с публичных трекеров). Перед использованием ссылки прочтите, пожалуйста Пользовательское соглашение, а также как можно дольше оставайтесь на раздаче! Для того, чтобы скачать сам торрент-файл (который видит больше источников), а также для того, чтобы поблагодарить релизера, вам необходимо зарегистрироваться. Если регистрироваться лень - вы можете также попробовать скачать релиз по нашим партнерским ссылкам ниже. Кроме того, зарегистрированным пользователям не показывается всплывающая реклама при скачивании.

[underverse.name].t132214.torrent
Трекер: Зарегистрирован   [ 03.05.2019 17:24 ]  

Статус: проверено (by 90ytr90 at 04.05.2019 07:57)
Поблагодарили: 1 человек
Тип торрента: публичный - доступные источники с открытых трекеров: 
Размер: 12,32 GB (занимает 2,82 DVDR, для записи нужно 3 болванки DVDR/RW)
 
 
Похожие темы
Форум Тема Автор Торрент Отв. Посл. сооб.
Зарубежное кино [DVDRip, Low-Res HDRip, и т.д.] Клятва / Pledge (Дэниэл Роббинс / Daniel Robbins) [2018 г., ужасы, триллер, BDRip] MVO (HDRezka Studio) + Original (Eng) 90ytr90
21 | 0

0 | 161

6

02.04.2019 16:48

T Зарубежное кино [DVDRip, Low-Res HDRip, и т.д.] Клятва / Pledge (Дэниэл Роббинс / Daniel Robbins) [2018 г., ужасы, триллер, WEBRip] MVO (Синема УС) 90ytr90
1 | 0

0 | 1037

10

11.01.2019 17:46

T Зарубежное кино [HDDVDRip / BDRip / WEB-DL / HDTV 1080/720р] Клятва / Pledge (Дэниэл Роббинс / Daniel Robbins) [2018 г., ужасы, триллер, WEBRip 720p] MVO (Синема УС) 90ytr90
1 | 0

0 | 1170

15

11.01.2019 17:47


Яндекс.Метрика powered by Sphinx


В Н И М А Н И Е
Сайт не распространяет и не хранит электронные версии произведений, а лишь бесплатно и без коммерческой выгоды (не требуя взамен платы,
SMS и т.д.) предоставляет доступ к создаваемому пользователями каталогу ссылок на торрент-файлы, которые содержат только списки хеш-сумм.
Убедительная просьба с жалобами обращаться напрямую к пользователю, разместившему торрент файл.

Вверх