Loading...
Error

Люцифер / Lucifer / Сезон 4 (серии 1-10 из 10) (Лен Уайзман) [2019 г., ужасы, фэнтези, драма, WEB-DLRip] (АРК-ТВ Studio)

Статистика раздачи
Размер:  19.21 GB   |    Зарегистрирован:  3 года 4 месяца   |    Скачан:  5 раз

Полного источника не было: 2 года 9 месяцев

Сидов:  0  |  0 KB/s  ]   Личеров:  0  |  0 KB/s  ]

* - сиды/пиры с внешних источников

   
 
Автор Сообщение

saigo Пол:Муж

10-Май-2019 12:01

Люцифер / Lucifer / Сезон 4 (серии 1-10 из 10)


Год выпуска: 2019
Жанр: ужасы, фэнтези, драма
Страна: США
Режиссер: Лен Уайзман
В ролях: Рэйчел Харрис, Лорен Джерман, Кайла Юэлл, Кевин Алехандро, Лесли-Энн Брандт, Д.Б. Вудсайд, Том Эллис, Мэтт Корбой, Скарлет Эстевез и др.
Сюжет фильма:
заскучавший и несчастный повелитель преисподней, Люцифер Морнингстар оставил свой престол и отправился в современный Лос-Анджелес, где основал ночной клуб «Lux». Очаровательный, харизматичный и дьявольски привлекательный Люцифер наслаждается своим отдыхом — вином, женщинами и музыкой — пока красивая поп-звезда не оказывается убитой на пороге его клуба
Качество видео: WEB-DLRip
Продолжительность: ~00:45:00 серия
Качество видео: WEB-DL pic
Перевод: дублированный (АРК-ТВ Studio)
Субтитры: Русские, английские

Видео: AVC/H.264, 1920x1080, ~6630 kbps
Аудио #1: AC3, 6 ch, 640kbps - русский дубляж (АРК-ТВ Studio)
Аудио #2: E-AC3, 6 ch, 640 kbps - английский
Общее
Уникальный идентификатор : 143988646706258507688820636692365813690 (0x6C533462EA7C67329DAF67849FBDA7BA)
Полное имя : Lucifer\Lucifer.S04.1080p.WEB-DL.DUB.EniaHD\Lucifer.S04E01.Everything's.Okay.1080p.WEB-DL.DUB.EniaHD.mkv
Формат : Matroska
Версия формата : Version 4 / Version 2
Размер файла : 1,92 Гбайт
Продолжительность : 48 м. 41 с.
Режим общего битрейта : Переменный
Общий поток : 5658 Кбит/сек
Дата кодирования : UTC 2019-05-08 10:07:02
Программа кодирования : mkvmerge v32.0.0 ('Astral Progressions') 32-bit
Библиотека кодирования : libebml v1.3.7 + libmatroska v1.5.0
Обложка : Yes
Attachments : cover.jpg

Видео
Идентификатор : 1
Формат : AVC
Формат/Информация : Advanced Video Codec
Профиль формата : [email protected]
Параметр CABAC формата : Да
Параметр ReFrames формата : 3 кадра
Идентификатор кодека : V_MPEG4/ISO/AVC
Продолжительность : 48 м. 41 с.
Вид битрейта : Переменный
Битрейт : 4420 Кбит/сек
Максимальный битрейт : 6630 Кбит/сек
Ширина : 1920 пикселей
Высота : 1080 пикселей
Соотношение сторон : 16:9
Режим частоты кадров : Постоянный
Частота кадров : 23,976 (24000/1001) кадра/сек
Цветовое пространство : YUV
Субдискретизация насыщенности : 4:2:0
Битовая глубина : 8 бит
Тип развёртки : Прогрессивная
Бит/(Пиксели*Кадры) : 0.089
Размер потока : 1,49 Гбайт (77%)
Библиотека кодирования : x264 core 148 r2715 7e75228
Настройки программы : cabac=1 / ref=3 / deblock=1:0:0 / analyse=0x1:0x111 / me=umh / subme=10 / psy=1 / psy_rd=1.00:0.00 / mixed_ref=1 / me_range=24 / chroma_me=1 / trellis=2 / 8x8dct=0 / cqm=0 / deadzone=21,11 / fast_pskip=1 / chroma_qp_offset=-2 / threads=8 / lookahead_threads=1 / sliced_threads=0 / nr=0 / decimate=1 / interlaced=0 / bluray_compat=0 / stitchable=1 / constrained_intra=0 / bframes=2 / b_pyramid=0 / b_adapt=2 / b_bias=0 / direct=3 / weightb=1 / open_gop=0 / weightp=2 / keyint=48 / keyint_min=25 / scenecut=0 / intra_refresh=0 / rc_lookahead=48 / rc=2pass / mbtree=1 / bitrate=4420 / ratetol=1.0 / qcomp=0.50 / qpmin=6 / qpmax=51 / qpstep=4 / cplxblur=20.0 / qblur=0.5 / vbv_maxrate=6630 / vbv_bufsize=8840 / nal_hrd=vbr / filler=0 / ip_ratio=1.40 / aq=1:1.00
Язык : English
Default : Да
Forced : Нет

Аудио #1
Идентификатор : 2
Формат : E-AC-3
Формат/Информация : Enhanced Audio Coding 3
Параметр Endianness формата : Big
Идентификатор кодека : A_EAC3
Продолжительность : 48 м. 41 с.
Вид битрейта : Постоянный
Битрейт : 640 Кбит/сек
Каналы : 6 каналов
Расположение каналов : Front: L C R, Side: L R, LFE
Частота : 48,0 КГц
Частота кадров : 187,500 кадров/сек (256 spf)
Метод сжатия : С потерями
Размер потока : 223 Мбайт (11%)
Заголовок : E-AC3 5.1 @ 640 kbps - DUB, ARC-TV Studio
Язык : Russian
Default : Да
Forced : Нет

Аудио #2
Идентификатор : 3
Формат : E-AC-3
Формат/Информация : Enhanced Audio Coding 3
Параметр Endianness формата : Big
Идентификатор кодека : A_EAC3
Продолжительность : 48 м. 41 с.
Вид битрейта : Постоянный
Битрейт : 640 Кбит/сек
Каналы : 6 каналов
Расположение каналов : Front: L C R, Side: L R, LFE
Частота : 48,0 КГц
Частота кадров : 187,500 кадров/сек (256 spf)
Метод сжатия : С потерями
Размер потока : 223 Мбайт (11%)
Заголовок : E-AC3 5.1 @ 640 kbps - Original
Язык : English
Default : Нет
Forced : Нет

Текст #1
Идентификатор : 4
Формат : UTF-8
Идентификатор кодека : S_TEXT/UTF8
Идентификатор кодека/Информация : UTF-8 Plain Text
Продолжительность : 47 м. 51 с.
Битрейт : 0 бит/сек
Count of elements : 8
Размер потока : 288 байт (0%)
Заголовок : Forced
Язык : Russian
Default : Да
Forced : Да

Текст #2
Идентификатор : 5
Формат : UTF-8
Идентификатор кодека : S_TEXT/UTF8
Идентификатор кодека/Информация : UTF-8 Plain Text
Продолжительность : 47 м. 51 с.
Битрейт : 110 бит/сек
Count of elements : 844
Размер потока : 38,6 Кбайт (0%)
Заголовок : Full
Язык : Russian
Default : Нет
Forced : Нет

Текст #3
Идентификатор : 6
Формат : UTF-8
Идентификатор кодека : S_TEXT/UTF8
Идентификатор кодека/Информация : UTF-8 Plain Text
Продолжительность : 46 м. 37 с.
Битрейт : 87 бит/сек
Count of elements : 957
Размер потока : 29,9 Кбайт (0%)
Заголовок : Full SDH
Язык : English
Default : Нет
Forced : Нет
Семпл: http://sendfile.su/1493394

picpicpicpic
Для увеличения картинки щелкните мышкой по превью

Этот торрент недоступен для скачивания без регистрации, однако доступен по публичной magnet-ссылке (источники с публичных трекеров). Перед использованием ссылки прочтите, пожалуйста Пользовательское соглашение, а также как можно дольше оставайтесь на раздаче! Для того, чтобы скачать сам торрент-файл (который видит больше источников), а также для того, чтобы поблагодарить релизера, вам необходимо зарегистрироваться. Если регистрироваться лень - вы можете также попробовать скачать релиз по нашим партнерским ссылкам ниже. Кроме того, зарегистрированным пользователям не показывается всплывающая реклама при скачивании.

[underverse.name].t132701.torrent
Трекер: Зарегистрирован   [ 10.05.2019 12:01 ]  
Статус: проверено (by Паукан at 11.05.2019 17:15)
Поблагодарили: пока никто не поблагодарил...
Тип торрента: публичный - доступные источники с открытых трекеров: 
Размер: 19.21 GB (занимает 4.39 DVDR, для записи нужно 5 болванок DVDR/RW)
 
 

Яндекс.Метрика powered by Sphinx


В Н И М А Н И Е
Сайт не распространяет и не хранит электронные версии произведений, а лишь бесплатно и без коммерческой выгоды (не требуя взамен платы,
SMS и т.д.) предоставляет доступ к создаваемому пользователями каталогу ссылок на торрент-файлы, которые содержат только списки хеш-сумм.
Убедительная просьба с жалобами обращаться напрямую к пользователю, разместившему торрент файл.

Вверх