Loading...
Error

(Breakbeat, Electronic) The Chemical Brothers - Brotherhood (2CD) (2008) [FLAC (Image+.CUE), lossless]

Статистика раздачи
Размер:  949 MB   |    Зарегистрирован:  9 лет   |    Скачан:  5 раз

Полного источника не было: 1 год 7 месяцев

Сидов:  0  |  0 KB/s  ]   Личеров:  0  |  0 KB/s  ]

* - сиды/пиры с внешних источников

   
 
Автор Сообщение

Bratok Пол:Муж

17-Сен-2010 16:36

The Chemical Brothers - Brotherhood (2CD)
Жанр: Breakbeat, Electronic
Год выпуска: 2008
Производитель диска: Великобритания
Аудиокодек: FLAC
Тип рипа: Image+.CUE
Битрейт аудио: lossless
Продолжительность: CD1 - 01:13:25, CD2 - 01:11:47

Релиз группы:
1. "Galvanize (featuring Q-Tip) (Radio Edit)" (from Push the Button) 4:29
2. "Hey Boy Hey Girl" (from Surrender) 4:49
3. "Block Rockin' Beats" (from Dig Your Own Hole) 5:00
4. "Do It Again (Edit) (featuring Ali Love)" (from We Are The Night) 3:41
5. "Believe (Edit) (featuring Kele Okereke)" (Push the Button) 6:07
6. "Star Guitar" (from Come With Us) 6:10
7. "Let Forever Be (featuring Noel Gallagher)" (Surrender) 3:56
8. "Leave Home" (from Exit Planet Dust) 5:07
9. "Keep My Composure (featuring Spank Rock)" 5:43
10. "Saturate" (from We Are The Night) 4:48
11. "Out of Control (featuring Bernard Sumner)" (from Surrender) 7:21
12. "Midnight Madness" 3:35
13. "The Golden Path (featuring The Flaming Lips)" (from Singles 93-03) 4:47
14. "Setting Sun (featuring Noel Gallagher)" (from Dig Your Own Hole) 4:00
15. "Chemical Beats" (from Exit Planet Dust) 4:02
Exact Audio Copy V0.99 prebeta 5 from 4. May 2009
EAC extraction logfile from 17. September 2010, 19:56

The Chemical Brothers / Brotherhood (CD1)

Used drive : TSSTcorpCDDVDW SH-S202J Adapter: 0 ID: 0

Read mode : Secure
Utilize accurate stream : Yes
Defeat audio cache : Yes
Make use of C2 pointers : No

Read offset correction : 6
Overread into Lead-In and Lead-Out : No
Fill up missing offset samples with silence : Yes
Delete leading and trailing silent blocks : No
Null samples used in CRC calculations : Yes
Used interface : Native Win32 interface for Win NT & 2000

Used output format : User Defined Encoder
Selected bitrate : 768 kBit/s
Quality : High
Add ID3 tag : No
Command line compressor : C:\Program Files\Exact Audio Copy\Flac\flac.exe
Additional command line options : -T "DATE=%y" -T "GENRE=%m" -8 -V %s

TOC of the extracted CD

Track | Start | Length | Start sector | End sector
---------------------------------------------------------
1 | 0:00.00 | 4:29.30 | 0 | 20204
2 | 4:29.30 | 4:50.71 | 20205 | 42025
3 | 9:20.26 | 4:54.02 | 42026 | 64077
4 | 14:14.28 | 3:40.31 | 64078 | 80608
5 | 17:54.59 | 6:06.58 | 80609 | 108116
6 | 24:01.42 | 6:10.04 | 108117 | 135870
7 | 30:11.46 | 3:42.68 | 135871 | 152588
8 | 33:54.39 | 5:06.50 | 152589 | 175588
9 | 39:01.14 | 5:43.46 | 175589 | 201359
10 | 44:44.60 | 4:50.60 | 201360 | 223169
11 | 49:35.45 | 7:21.54 | 223170 | 256298
12 | 56:57.24 | 3:35.36 | 256299 | 272459
13 | 60:32.60 | 4:47.33 | 272460 | 294017
14 | 65:20.18 | 4:01.70 | 294018 | 312162
15 | 69:22.13 | 4:03.61 | 312163 | 330448

Range status and errors

Selected range

Filename E:\музыка на торент 2\The Chemical Brothers Brotherhood\Brotherhood (CD1)\The Chemical Brothers - Brotherhood (CD1).wav

Peak level 100.0 %
Range quality 100.0 %
Test CRC BEFF5E18
Copy CRC BEFF5E18
Copy OK

No errors occurred

AccurateRip summary
Track 1 accurately ripped (confidence 75) [41F385EE]
Track 2 accurately ripped (confidence 76) [D19A6B4C]
Track 3 accurately ripped (confidence 75) [8AD8796A]
Track 4 accurately ripped (confidence 74) [8D4C3BD3]
Track 5 accurately ripped (confidence 75) [5AF577F3]
Track 6 accurately ripped (confidence 75) [E5F2EA07]
Track 7 accurately ripped (confidence 74) [BF0C861E]
Track 8 accurately ripped (confidence 74) [FF4145C0]
Track 9 accurately ripped (confidence 75) [FCCCDE37]
Track 10 accurately ripped (confidence 74) [94FE05F4]
Track 11 accurately ripped (confidence 75) [3EAC4F36]
Track 12 accurately ripped (confidence 75) [4808FE77]
Track 13 accurately ripped (confidence 74) [83202827]
Track 14 accurately ripped (confidence 74) [AF346644]
Track 15 accurately ripped (confidence 74) [6123512B]
All tracks accurately ripped

End of status report
AUDIOCHECKER v2.0 beta (build 457) - by Dester - opdester@freemail.hu
~~~~~~~~~~~~~~~~~~~~~~~~~~~~~~~~~~
-=== НЕ РЕДАКТИРУЙТЕ ЭТОТ ФАЙЛ! ===-

Путь: ...\Brotherhood (CD1)

1 -=- The Chemical Brothers - Brotherhood (CD1).flac -=- CDDA (100%)

119684676
1. "Electronic Battle Weapon 1" (Version of "It Doesn't Matter" from Dig Your Own Hole) 6:39
2. "Electronic Battle Weapon 2" (Version of "Don't Stop The Rock" from Dig Your Own Hole) 7:17
3. "Electronic Battle Weapon 3" (Remix of "Under The Influence" from Surrender) 5:08
4. "Electronic Battle Weapon 4" ("Freak of the Week" from the single Music:Response) 6:06
5. "Electronic Battle Weapon 5" (Version of "It Began In Afrika" from Come With Us) 8:40
6. "Electronic Battle Weapon 6" (Remix of "Hoops" from Come With Us) 9:05
7. "Electronic Battle Weapon 7" ("Acid Children" from the single Galvanize) 7:27
8. "Electronic Battle Weapon 8" (Version of "Saturate" from We Are The Night) 6:31
9. "Electronic Battle Weapon 9" 6:41
10. "Electronic Battle Weapon 10" (Version of "Midnight Madness") 8:15
Exact Audio Copy V0.99 prebeta 5 from 4. May 2009

EAC extraction logfile from 17. September 2010, 20:35

Chemical Brothers, The / Brotherhood (CD2)

Used drive : TSSTcorpCDDVDW SH-S202J Adapter: 0 ID: 0

Read mode : Secure
Utilize accurate stream : Yes
Defeat audio cache : Yes
Make use of C2 pointers : No

Read offset correction : 6
Overread into Lead-In and Lead-Out : No
Fill up missing offset samples with silence : Yes
Delete leading and trailing silent blocks : No
Null samples used in CRC calculations : Yes
Used interface : Native Win32 interface for Win NT & 2000

Used output format : User Defined Encoder
Selected bitrate : 768 kBit/s
Quality : High
Add ID3 tag : No
Command line compressor : C:\Program Files\Exact Audio Copy\Flac\flac.exe
Additional command line options : -T "DATE=%y" -T "GENRE=%m" -8 -V %s

TOC of the extracted CD

Track | Start | Length | Start sector | End sector
---------------------------------------------------------
1 | 0:00.00 | 6:38.61 | 0 | 29910
2 | 6:38.61 | 7:16.35 | 29911 | 62645
3 | 13:55.21 | 5:07.74 | 62646 | 85744
4 | 19:03.20 | 6:05.57 | 85745 | 113176
5 | 25:09.02 | 8:39.38 | 113177 | 152139
6 | 33:48.40 | 9:05.00 | 152140 | 193014
7 | 42:53.40 | 7:26.35 | 193015 | 226499
8 | 50:20.00 | 6:30.72 | 226500 | 255821
9 | 56:50.72 | 6:40.65 | 255822 | 285886
10 | 63:31.62 | 8:15.13 | 285887 | 323024

Range status and errors

Selected range

Filename E:\музыка на торент 2\The Chemical Brothers Brotherhood\Brotherhood (CD2)\Chemical Brothers, The - Brotherhood (CD2).wav

Peak level 100.0 %
Range quality 100.0 %
Test CRC 23998956
Copy CRC 23998956
Copy OK

No errors occurred

AccurateRip summary
Track 1 accurately ripped (confidence 49) [C47619B9]
Track 2 accurately ripped (confidence 48) [089EA104]
Track 3 accurately ripped (confidence 48) [AB14914F]
Track 4 accurately ripped (confidence 47) [A8DEE4D6]
Track 5 accurately ripped (confidence 48) [053B496C]
Track 6 accurately ripped (confidence 48) [B9BF2E7B]
Track 7 accurately ripped (confidence 48) [2BF3DBFE]
Track 8 accurately ripped (confidence 48) [84B4A7EF]
Track 9 accurately ripped (confidence 48) [2A06F431]
Track 10 accurately ripped (confidence 48) [BFF2BEBC]
All tracks accurately ripped

End of status report
AUDIOCHECKER v2.0 beta (build 457) - by Dester - opdester@freemail.hu
~~~~~~~~~~~~~~~~~~~~~~~~~~~~~~~~~~
-=== НЕ РЕДАКТИРУЙТЕ ЭТОТ ФАЙЛ! ===-

Путь: ...\Brotherhood (CD2)

1 -=- Chemical Brothers, The - Brotherhood (CD2).flac -=- CDDA (99%)

43650740

Этот торрент недоступен для скачивания без регистрации, однако доступен по публичной magnet-ссылке (источники с публичных трекеров). Перед использованием ссылки прочтите, пожалуйста Пользовательское соглашение, а также как можно дольше оставайтесь на раздаче! Для того, чтобы скачать сам торрент-файл (который видит больше источников), а также для того, чтобы поблагодарить релизера, вам необходимо зарегистрироваться. Если регистрироваться лень - вы можете также попробовать скачать релиз по нашим партнерским ссылкам ниже. Кроме того, зарегистрированным пользователям не показывается всплывающая реклама при скачивании.

[underverse.su].t11983.torrent
Трекер: Зарегистрирован   [ 17.09.2010 16:37 ]  

Статус: проверено (by Bratok at 17.09.2010 16:42)
Поблагодарили: 1 человек
Тип торрента: публичный - доступные источники с открытых трекеров: 
Размер: 949 MB (занимает 0,21 DVDR, для записи нужно 1 болванка DVDR/RW)
 
 
Похожие темы
Форум Тема Автор Торрент Отв. Посл. сооб.
PsyChill, Ambient Dub (Breakbeat, Chillout, Downtempo) Sundial Aeon - Terragenesis (2019) [MP3, 320 kbps CBR] Magnat
1 | 0

0 | 255

2

30.10.2019 11:13

Electro, Breakbeat, Dubstep (Breakbeat, Breaks, Hip-Hop) Krafty Kuts & Dynamite MC - All 4 Corners (2017) [MP3, 320 kbps CBR] Darkferse
0 | 0

0 | 1686

10

22.05.2017 16:13

Electro, Breakbeat, Dubstep (Breakbeat, Electronic, Big Beat) The Prodigy - Full Discography (1990-2009) [MP3, 128-320 Kbps] 8ad_R060d
0 | 2

1 | 5874

8

24.03.2013 19:41

Electro, Breakbeat, Dubstep (Breakbeat, Nu Jazz) Skeewiff - Skeewiff In Wonderland (2017) [MP3, 320 kbps CBR] Darkferse
0 | 0

0 | 1284

4

10.04.2017 21:45

Electro, Breakbeat, Dubstep (Breakbeat, Drum & Bass, House) Rick Tedesco - Style Clash Vol. 2 (2017) [MP3, 320 kbps CBR] Darkferse
0 | 0

0 | 1137

5

03.06.2017 01:03

Electro, Breakbeat, Dubstep (Breakbeat, Industrial, Electronic) 3D Stas - Industria Psychika (2017) [MP3, 320 kbps CBR] Darkferse
0 | 0

0 | 1575

4

10.07.2017 23:04

Electro, Breakbeat, Dubstep (Breakbeat, Neo-Dub, Experimental) Gaudi - Magnetic (2017) [MP3, 320 kbps CBR] Darkferse
0 | 0

0 | 1015

4

10.07.2017 23:08

Electro, Breakbeat, Dubstep (Breakbeat, Downtempo, Electronic) KLYNE - Klyne (2017) [MP3, 320 kbps CBR] Darkferse
0 | 0

0 | 1093

6

10.07.2017 23:14

Electro, Breakbeat, Dubstep (Breakbeat, Dubstep, Drum & Bass) Mechanical Pressure - Contact LP (2017) [MP3, 320 kbps CBR] Darkferse
0 | 0

0 | 1072

2

22.12.2017 20:12

Electro, Breakbeat, Dubstep (Breakbeat, Hip-Hop, Electroclash) Def Cut - Masterpiece (2017) [MP3, 320 kbps CBR] Darkferse
0 | 0

0 | 1023

7

24.12.2017 22:25

21-Ноя-2018 20:07

Топик был перенесен из форума Electro, Breakbeat (Lossless) в форум Архив (HQ электронная музыка)


[cron robot]
 

Яндекс.Метрика powered by Sphinx


В Н И М А Н И Е
Сайт не распространяет и не хранит электронные версии произведений, а лишь бесплатно и без коммерческой выгоды (не требуя взамен платы,
SMS и т.д.) предоставляет доступ к создаваемому пользователями каталогу ссылок на торрент-файлы, которые содержат только списки хеш-сумм.
Убедительная просьба с жалобами обращаться напрямую к пользователю, разместившему торрент файл.

Вверх