Loading...
Error

В поисках доброго самаритянина / Good Sam (Кейт Майлз Мелвилл) [2019 г., комедия, WEB-DLRip] Dub (Пифагор)

Статистика раздачи
Размер:  1,46 GB   |    Зарегистрирован:  4 месяца 2 дня   |    Скачан:  7 раз

Полного источника не было: 1 месяц 15 дней

Сидов:  0  |  0 KB/s  ]   Личеров:  0  |  0 KB/s  ]

* - сиды/пиры с внешних источников

   
 
Автор Сообщение

makkol Пол:Муж

20-Май-2019 16:04

В поисках доброго самаритянина / Good Sam


Год выпуска: 2019
Жанр: комедия
Производство: США [Wind Dancer Films, Muse Entertainment Enterprises]
Режиссер: Кейт Майлз Мелвилл
В ролях: Тия Сиркар, Чад Коннелл, Марко Граззини, Бриттани Дрисделл, Марк Камачо, Элана Дункельман, Стефани Накамура, Джесси Камачо, Кенни Вонг
Сюжет фильма:
Репортёр новостей о происшествиях Кейт Брэдли множество раз оказывалась на грани гибели в силу рода своей деятельности, так что после последнего случая, когда оказавшийся поблизости пожарный спас её в последний момент, руководство решает дать Кейт перерыв от опасностей и поручает девушке спокойное дело - раскрыть тайну загадочного человека, оставляющего на порогах разных домов Нью-Йорка сумки, содержащие внутри $100 000. Поначалу Кейт скептически относится к идее появления в городе доброго самаритянина, но по мере расследования обнаруживает, что количество его подвигов стремительно увеличивается, при этом она никак не может найти общее связующее, по которым загадочный Добрый Сэм выбирает объекты своей помощи. В ходе работы по выяснению личности поразительного человека и освещения его истории Брэдли находит ещё и свою любовь.

  • Мировая премьера: 16 мая 2019


Качество видео: WEB-DLRip

Продолжительность: 01:29:00
Формат: AVI
Видео: XviD, 720x400 (16:9), 24.000 fps, 1871 kbps
Аудио: русский, дублированный (Пифагор), AC3 5.1, 48 kHz, 448 kbps
Субтитры: русские форсированные внешние

Код:

Формат : AVI
Формат/Информация : Audio Video Interleave
Размер файла : 1,46 Гбайт
Продолжительность : 1 ч. 29 м.
Общий поток : 2328 Кбит/сек
Название фильма : В поисках доброго самаритянина_2019_WEB-DLRip
Программа кодирования : VirtualDubMod 1.5.10.3 | (build 2550/release)
Авторское право : порошков

Видео
Идентификатор : 0
Формат : MPEG-4 Visual
Профиль формата : Advanced Simple@L5
Настройки формата : BVOP1 / Custom Matrix
Параметр BVOP формата : 1
Параметр QPel формата : Нет
Параметр GMC формата : Без точки перехода
Параметр матрицы формата : Выборочная
Идентификатор кодека : XVID
Идентификатор кодека/Подсказка : XviD
Продолжительность : 1 ч. 29 м.
Битрейт : 1871 Кбит/сек
Ширина : 704 пикселя
Высота : 400 пикселей
Соотношение сторон : 16:9
Частота кадров : 24,000 кадра/сек
Цветовое пространство : YUV
Субдискретизация насыщенности : 4:2:0
Битовая глубина : 8 бит
Тип развёртки : Прогрессивная
Метод сжатия : С потерями
Бит/(Пиксели*Кадры) : 0.277
Размер потока : 1,17 Гбайт (80%)
Библиотека кодирования : XviD 73

Аудио
Идентификатор : 1
Формат : AC-3
Формат/Информация : Audio Coding 3
Коммерческое название : Dolby Digital
Идентификатор кодека : 2000
Продолжительность : 1 ч. 29 м.
Вид битрейта : Постоянный
Битрейт : 448 Кбит/сек
Каналы : 6 каналов
ChannelLayout : L R C LFE Ls Rs
Частота : 48,0 КГц
Частота кадров : 31,250 кадров/сек (1536 SPF)
Битовая глубина : 16 бит
Метод сжатия : С потерями
Размер потока : 287 Мбайт (19%)
Выравнивание : Разделение по промежуткам
Продолжительность промежутка : 42 мс. (1,00 видеокадр)
Время предзагрузки промежутка : 500 мс.
picpicpicpicpic
Для увеличения картинки щелкните мышкой по превью

Этот торрент недоступен для скачивания без регистрации, однако доступен по публичной magnet-ссылке (источники с публичных трекеров). Перед использованием ссылки прочтите, пожалуйста Пользовательское соглашение, а также как можно дольше оставайтесь на раздаче! Для того, чтобы скачать сам торрент-файл (который видит больше источников), а также для того, чтобы поблагодарить релизера, вам необходимо зарегистрироваться. Если регистрироваться лень - вы можете также попробовать скачать релиз по нашим партнерским ссылкам ниже. Кроме того, зарегистрированным пользователям не показывается всплывающая реклама при скачивании.

[underverse.name].t133386.torrent
Трекер: Зарегистрирован   [ 20.05.2019 16:04 ]  

Статус: проверено (by makkol at 20.05.2019 16:05)
Поблагодарили: пока никто не поблагодарил...
Тип торрента: публичный - доступные источники с открытых трекеров: 
Размер: 1,46 GB (занимает 0,33 DVDR, для записи нужно 1 болванка DVDR/RW)
 
 
Похожие темы
Форум Тема Автор Торрент Отв. Посл. сооб.
T Зарубежное кино [DVDRip, Low-Res HDRip, и т.д.] В поисках Феллини / In Search of Fellini (Тарон Лекстон) [2017 г., драма, приключения, WEB-DLRip] MVO (Синема УС) makkol
0 | 0

0 | 940

10

16.03.2018 11:48

Зарубежное кино [DVDRip, Low-Res HDRip, и т.д.] В поисках галактики / Galaxy Quest (Дин Паризо / Dean Parisot) [1999 г., фантастика, комедия, приключения, BDRip] MVO + Original (Eng) + AVO (Ю.Живов) + MVO (ОРТ) 90ytr90
2 | 0

0 | 844

8

31.01.2015 21:22

Зарубежное кино [DVDRip, Low-Res HDRip, и т.д.] В поисках Рождества / Finding Christmas (Харви Кросслэнд) [2013 г., мелодрама, SatRip] MVO makkol
2 | 0

0 | 867

1

17.06.2015 22:09

Зарубежное кино [DVDRip, Low-Res HDRip, и т.д.] В поисках Бобби Фишера / Выбор игры / Searching for Bobby Fischer (Стивен Зеллиан) [1993 г., драма, биография, WEB-DLRip] DVO + MVO + VO + Original + Subs makkol
7 | 0

0 | 1145

5

08.03.2016 15:25

T Зарубежное кино [DVDRip, Low-Res HDRip, и т.д.] В поисках серебряного озера / Locating Silver Lake (Эрик Билитч / Eric Bilitch) [2018 г., драма, WEBRip] MVO (Синема УС) 90ytr90
3 | 3

0 | 355

4

01.04.2019 18:18

T Зарубежное кино [DVDRip, Low-Res HDRip, и т.д.] В поисках праздника / The Leisure Seeker (Паоло Вирдзи) [2017 г., драма, мелодрама, комедия, приключения, HDRip] MVO (@MUZOBOZ@) 90ytr90
0 | 0

0 | 804

5

06.05.2018 16:35

T Зарубежное кино [DVDRip, Low-Res HDRip, и т.д.] В поисках праздника / The Leisure Seeker (Паоло Вирдзи) [2017 г., драма, мелодрама, комедия, приключения, HDRip] MVO (официальный звук) makkol
1 | 0

0 | 402

1

21.08.2018 21:29

Зарубежное кино [DVDRip, Low-Res HDRip, и т.д.] В поисках Стива Маккуина / Finding Steve McQueen (Марк Стивен Джонсон / Mark Steven Johnson) [2018 г., криминал, мелодрама, WEB-DLRip] MVO (HDRezka Studio) 90ytr90
31 | 2

0 | 343

9

12.04.2019 17:32

Зарубежное кино [DVDRip, Low-Res HDRip, и т.д.] В поисках Стива Маккуина / Finding Steve McQueen (Марк Стивен Джонсон / Mark Steven Johnson) [2018 г., криминал, мелодрама, BDRip] MVO (HDRezka Studio) + Original (Eng) + Sub (Rus) 90ytr90
45 | 2

0 | 249

12

12.08.2019 21:15

Зарубежное кино [DVDRip, Low-Res HDRip, и т.д.] В поисках серебряного озера / Locating Silver Lake (Эрик Билитч / Eric Bilitch) [2018 г., драма, WEB-DLRip] MVO (HDRezka Studio) + Original (Eng) + Sub (Rus) 90ytr90
26 | 3

0 | 187

5

03.09.2019 08:01


Яндекс.Метрика powered by Sphinx


В Н И М А Н И Е
Сайт не распространяет и не хранит электронные версии произведений, а лишь бесплатно и без коммерческой выгоды (не требуя взамен платы,
SMS и т.д.) предоставляет доступ к создаваемому пользователями каталогу ссылок на торрент-файлы, которые содержат только списки хеш-сумм.
Убедительная просьба с жалобами обращаться напрямую к пользователю, разместившему торрент файл.

Вверх