Loading...
Error

(Modern Electric Blues, Blues Rock) Paul Rose - Double Life (2013) [FLAC (Tracks+.Cue), Lossless]

Статистика раздачи
Размер:  386 MB   |    Зарегистрирован:  9 месяцев   |    Скачан:  2 раза

Полного источника не было: 1 месяц 30 дней

Сидов:  0  |  0 KB/s  ]   Личеров:  0  |  0 KB/s  ]

* - сиды/пиры с внешних источников

   
 
Автор Сообщение

Бишеп Пол:Муж

24-Май-2019 05:33

Paul Rose - Double Life

Жанр: Modern Electric Blues, Blues Rock
Год выпуска: 2013
Носитель: CD
Производитель диска: MITA Records - MITACD333
Аудиокодек: FLAC
Тип рипа: Tracks+.CUE
Битрейт аудио: lossless
Продолжительность: 01:01:52


Треклист:
01. Cold Sweat (5:15)
02. Honey Hush (3:39)
03. Let's Straighten it Out (6:55)
04. Drowning in the Sea of Love (4:42)
05. Crazy 'Bout You Baby (5:11)
06. Dark End of Street (5:39)
07. Ball and Chain (3:48)
08. (If Loving You Is Wrong) I Don't Want to Be Right (6:37)
09. Just a Little Bit (3:38)
10. Uphill Climb (6:29)
11. Stormy Monday (9:59)

Exact Audio Copy V1.3 from 2. September 2016 

EAC extraction logfile from 4. March 2019, 16:02

Paul Rose / Double Life

Used drive : ASUS SDRW-08D2S-U Adapter: 1 ID: 0

Read mode : Secure
Utilize accurate stream : Yes
Defeat audio cache : Yes
Make use of C2 pointers : No

Read offset correction : 6
Overread into Lead-In and Lead-Out : No
Fill up missing offset samples with silence : Yes
Delete leading and trailing silent blocks : No
Null samples used in CRC calculations : Yes
Used interface : Native Win32 interface for Win NT & 2000
Gap handling : Appended to previous track

Used output format : User Defined Encoder
Selected bitrate : 80 kBit/s
Quality : High
Add ID3 tag : No
Command line compressor : F:\~\installs. OS, music, general software\Music\flac-1.3.2-win\win64\flac.exe
Additional command line options : -8 -V -T "ARTIST=%artist%" -T "COMPOSER=%composer%" -T "TITLE=%title%" -T "ALBUM=%albumtitle%" -T "DATE=%year%" -T "TRACKNUMBER=%tracknr%" -T "TOTALTRACKS=%numtracks%" -T "TOTALDISCS=%totalcds%" -T "DISCNUMBER=%cdnumber%" -T "GENRE=%genre%" -T "ALBUMARTIST=%albumartist%" -T "ALBUM ARTIST=%albumartist%" -T "COMMENT=EAC Secure Mode, Test & Copy, AccurateRip, FLAC -8" %source%

TOC of the extracted CD

Track | Start | Length | Start sector | End sector
---------------------------------------------------------
1 | 0:00.00 | 5:14.49 | 0 | 23598
2 | 5:14.49 | 3:38.64 | 23599 | 40012
3 | 8:53.38 | 6:54.62 | 40013 | 71124
4 | 15:48.25 | 4:42.32 | 71125 | 92306
5 | 20:30.57 | 5:11.00 | 92307 | 115631
6 | 25:41.57 | 5:39.37 | 115632 | 141093
7 | 31:21.19 | 3:48.00 | 141094 | 158193
8 | 35:09.19 | 6:37.22 | 158194 | 187990
9 | 41:46.41 | 3:38.21 | 187991 | 204361
10 | 45:24.62 | 6:28.43 | 204362 | 233504
11 | 51:53.30 | 9:58.65 | 233505 | 278419

Track 1

Filename F:\Torrents\NW\mklink\2019\03\Paul Rose - Double Life (2013) [MITACD333] {CD - FLAC}\01 - Cold Sweat.wav

Pre-gap length 0:00:02.00

Peak level 99.8 %
Extraction speed 1.1 X
Track quality 100.0 %
Test CRC AE77E62F
Copy CRC AE77E62F
Accurately ripped (confidence 3) [2AF28695] (AR v2)
Copy OK

Track 2

Filename F:\Torrents\NW\mklink\2019\03\Paul Rose - Double Life (2013) [MITACD333] {CD - FLAC}\02 - Honey Hush.wav

Pre-gap length 0:00:00.42

Peak level 99.9 %
Extraction speed 1.2 X
Track quality 100.0 %
Test CRC 677A62E4
Copy CRC 677A62E4
Accurately ripped (confidence 3) [3AA8693E] (AR v2)
Copy OK

Track 3

Filename F:\Torrents\NW\mklink\2019\03\Paul Rose - Double Life (2013) [MITACD333] {CD - FLAC}\03 - Let's Straighten it Out.wav

Pre-gap length 0:00:00.45

Peak level 99.8 %
Extraction speed 1.5 X
Track quality 100.0 %
Test CRC 74F1B456
Copy CRC 74F1B456
Accurately ripped (confidence 3) [FA213ADD] (AR v2)
Copy OK

Track 4

Filename F:\Torrents\NW\mklink\2019\03\Paul Rose - Double Life (2013) [MITACD333] {CD - FLAC}\04 - Drowning in the Sea of Love.wav

Pre-gap length 0:00:00.19

Peak level 99.9 %
Extraction speed 1.5 X
Track quality 100.0 %
Test CRC 6ED7B582
Copy CRC 6ED7B582
Accurately ripped (confidence 3) [DDA294FE] (AR v2)
Copy OK

Track 5

Filename F:\Torrents\NW\mklink\2019\03\Paul Rose - Double Life (2013) [MITACD333] {CD - FLAC}\05 - Crazy 'Bout You Baby.wav

Pre-gap length 0:00:02.39

Peak level 99.9 %
Extraction speed 1.7 X
Track quality 100.0 %
Test CRC D2DC8CE2
Copy CRC D2DC8CE2
Accurately ripped (confidence 3) [EA4656AC] (AR v2)
Copy OK

Track 6

Filename F:\Torrents\NW\mklink\2019\03\Paul Rose - Double Life (2013) [MITACD333] {CD - FLAC}\06 - Dark End of Street.wav

Pre-gap length 0:00:03.62

Peak level 99.9 %
Extraction speed 1.8 X
Track quality 100.0 %
Test CRC 48A3474F
Copy CRC 48A3474F
Accurately ripped (confidence 3) [B6E15F60] (AR v2)
Copy OK

Track 7

Filename F:\Torrents\NW\mklink\2019\03\Paul Rose - Double Life (2013) [MITACD333] {CD - FLAC}\07 - Ball and Chain.wav

Pre-gap length 0:00:00.57

Peak level 99.9 %
Extraction speed 1.8 X
Track quality 100.0 %
Test CRC 9983899D
Copy CRC 9983899D
Accurately ripped (confidence 3) [660917CA] (AR v2)
Copy OK

Track 8

Filename F:\Torrents\NW\mklink\2019\03\Paul Rose - Double Life (2013) [MITACD333] {CD - FLAC}\08 - (If Loving You Is Wrong) I Don't Want to Be Right.wav

Pre-gap length 0:00:01.35

Peak level 99.8 %
Extraction speed 2.1 X
Track quality 100.0 %
Test CRC 15439BF0
Copy CRC 15439BF0
Accurately ripped (confidence 3) [F6AE21F9] (AR v2)
Copy OK

Track 9

Filename F:\Torrents\NW\mklink\2019\03\Paul Rose - Double Life (2013) [MITACD333] {CD - FLAC}\09 - Just a Little Bit.wav

Pre-gap length 0:00:00.25

Peak level 99.8 %
Extraction speed 2.0 X
Track quality 100.0 %
Test CRC 98B522CD
Copy CRC 98B522CD
Accurately ripped (confidence 3) [4BA9E7E1] (AR v2)
Copy OK

Track 10

Filename F:\Torrents\NW\mklink\2019\03\Paul Rose - Double Life (2013) [MITACD333] {CD - FLAC}\10 - Uphill Climb.wav

Pre-gap length 0:00:00.26

Peak level 99.9 %
Extraction speed 2.2 X
Track quality 100.0 %
Test CRC BA59A7E0
Copy CRC BA59A7E0
Accurately ripped (confidence 3) [FE3FBC88] (AR v2)
Copy OK

Track 11

Filename F:\Torrents\NW\mklink\2019\03\Paul Rose - Double Life (2013) [MITACD333] {CD - FLAC}\11 - Stormy Monday.wav

Pre-gap length 0:00:01.69

Peak level 99.8 %
Extraction speed 2.4 X
Track quality 100.0 %
Test CRC 39C5F659
Copy CRC 39C5F659
Accurately ripped (confidence 3) [BBF10E1F] (AR v2)
Copy OK

All tracks accurately ripped

No errors occurred

End of status report

---- CUETools DB Plugin V2.1.6

[CTDB TOCID: xU2Jj07rGwI68E1co3NSLN3WgqI-] found
Submit result: xU2Jj07rGwI68E1co3NSLN3WgqI- has been confirmed
Track | CTDB Status
1 | (7/7) Accurately ripped
2 | (7/7) Accurately ripped
3 | (7/7) Accurately ripped
4 | (7/7) Accurately ripped
5 | (7/7) Accurately ripped
6 | (7/7) Accurately ripped
7 | (7/7) Accurately ripped
8 | (7/7) Accurately ripped
9 | (7/7) Accurately ripped
10 | (7/7) Accurately ripped
11 | (7/7) Accurately ripped

==== Log checksum ADAF3D394E802CCAA59973E93CC433348516E043C0454EE2D3B9CD7B3295DF7C ====
REM GENRE Blues 
REM DATE 2013
REM DISCID 7F0E800B
REM COMMENT "ExactAudioCopy v1.3"
PERFORMER "Paul Rose"
TITLE "Double Life"
REM COMPOSER ""
FILE "01 - Cold Sweat.wav" WAVE
TRACK 01 AUDIO
TITLE "Cold Sweat"
PERFORMER "Paul Rose"
REM COMPOSER ""
FLAGS DCP
INDEX 01 00:00:00
TRACK 02 AUDIO
TITLE "Honey Hush"
PERFORMER "Paul Rose"
REM COMPOSER ""
FLAGS DCP
INDEX 00 05:14:07
FILE "02 - Honey Hush.wav" WAVE
INDEX 01 00:00:00
TRACK 03 AUDIO
TITLE "Let's Straighten it Out"
PERFORMER "Paul Rose"
REM COMPOSER ""
FLAGS DCP
INDEX 00 03:38:19
FILE "03 - Let's Straighten it Out.wav" WAVE
INDEX 01 00:00:00
TRACK 04 AUDIO
TITLE "Drowning in the Sea of Love"
PERFORMER "Paul Rose"
REM COMPOSER ""
FLAGS DCP
INDEX 00 06:54:43
FILE "04 - Drowning in the Sea of Love.wav" WAVE
INDEX 01 00:00:00
TRACK 05 AUDIO
TITLE "Crazy 'Bout You Baby"
PERFORMER "Paul Rose"
REM COMPOSER ""
FLAGS DCP
INDEX 00 04:39:68
FILE "05 - Crazy 'Bout You Baby.wav" WAVE
INDEX 01 00:00:00
TRACK 06 AUDIO
TITLE "Dark End of Street"
PERFORMER "Paul Rose"
REM COMPOSER ""
FLAGS DCP
INDEX 00 05:07:13
FILE "06 - Dark End of Street.wav" WAVE
INDEX 01 00:00:00
TRACK 07 AUDIO
TITLE "Ball and Chain"
PERFORMER "Paul Rose"
REM COMPOSER ""
FLAGS DCP
INDEX 00 05:38:55
FILE "07 - Ball and Chain.wav" WAVE
INDEX 01 00:00:00
TRACK 08 AUDIO
TITLE "(If Loving You Is Wrong) I Don't Want to Be Right"
PERFORMER "Paul Rose"
REM COMPOSER ""
FLAGS DCP
INDEX 00 03:46:40
FILE "08 - (If Loving You Is Wrong) I Don't Want to Be Right.wav" WAVE
INDEX 01 00:00:00
TRACK 09 AUDIO
TITLE "Just a Little Bit"
PERFORMER "Paul Rose"
REM COMPOSER ""
FLAGS DCP
INDEX 00 06:36:72
FILE "09 - Just a Little Bit.wav" WAVE
INDEX 01 00:00:00
TRACK 10 AUDIO
TITLE "Uphill Climb"
PERFORMER "Paul Rose"
REM COMPOSER ""
FLAGS DCP
INDEX 00 03:37:70
FILE "10 - Uphill Climb.wav" WAVE
INDEX 01 00:00:00
TRACK 11 AUDIO
TITLE "Stormy Monday"
PERFORMER "Paul Rose"
REM COMPOSER ""
FLAGS DCP
INDEX 00 06:26:49
FILE "11 - Stormy Monday.wav" WAVE
INDEX 01 00:00:00

Этот торрент недоступен для скачивания без регистрации, однако доступен по публичной magnet-ссылке (источники с публичных трекеров). Перед использованием ссылки прочтите, пожалуйста Пользовательское соглашение, а также как можно дольше оставайтесь на раздаче! Для того, чтобы скачать сам торрент-файл (который видит больше источников), а также для того, чтобы поблагодарить релизера, вам необходимо зарегистрироваться. Если регистрироваться лень - вы можете также попробовать скачать релиз по нашим партнерским ссылкам ниже. Кроме того, зарегистрированным пользователям не показывается всплывающая реклама при скачивании.

[underverse.name].t133608.torrent
Трекер: Зарегистрирован   [ 24.05.2019 05:33 ]  

Статус: проверено (by Бишеп at 24.05.2019 05:33)
Поблагодарили: пока никто не поблагодарил...
Тип торрента: публичный - доступные источники с открытых трекеров: 
Размер: 386 MB (занимает 0,09 DVDR, для записи нужно 1 болванка DVDR/RW)
 
 
Похожие темы
Форум Тема Автор Торрент Отв. Посл. сооб.
Blues (Modern Electric Blues, Soul Blues) Arthur Adams - Look What The Blues Has Done For Me (2017) [MP3, 320 kbps CBR] Darkferse
2 | 0

0 | 973

6

02.09.2017 10:16

Blues (Modern Electric Blues, Harmonica Blues) Steve Tracy & The Crawling Kingsnakes - I Bleed Through My Soul (2017) [MP3, 320 kbps CBR] Darkferse
1 | 0

0 | 820

5

03.09.2017 08:44

Blues (Modern Electric Blues) Blues Company - With A Little Help... (2017) [MP3, 320 kbps CBR] Darkferse
0 | 0

0 | 975

3

08.09.2017 16:46

Blues (Modern Electric Blues) Blues Company - Encores (2017) [MP3, 320 kbps CBR] Darkferse
0 | 0

1 | 1155

6

02.10.2017 17:14

Blues (Modern Electric Blues) Piero De Luca & Big Fat Mama - Greetings From The Coast! (2018) [MP3, 320 kbps CBR] Darkferse
0 | 0

0 | 484

4

30.09.2018 00:17

Blues (Lossless) (Modern Electric Blues, Soul-Blues) The Robert Cray Band - Nothin' But Love (Limited Edition Deluxe Version) (2012) [FLAC (Image+.CUE), Lossless] Бишеп
0 | 0

1 | 2066

12

20.09.2013 17:21

Blues (Lossless) (Modern Electric Blues) Eddie Cotton - Here I Come (2014) [FLAC (Image+.CUE), Lossless] Бишеп
1 | 0

0 | 822

6

09.04.2014 09:10

Blues (Lossless) (Modern Electric Blues) Coco Montoya - Gotta Mind To Travel (1994) [FLAC (Tracks+.Cue), Lossless] Inspektor_49
0 | 0

1 | 179

4

19.11.2019 13:30

Blues (Lossless) (Modern Electric Blues) Dave Specter - Message In Blue (2014) [FLAC (Image+.CUE), Lossless] Бишеп
1 | 0

0 | 1503

5

02.06.2014 09:34

Blues (Lossless) (Modern Electric & Rockin' Blues) Tommy Castro - Exception To The Rule (1995) [FLAC (Image+.CUE), Lossless] Бишеп
1 | 0

0 | 1019

7

02.12.2014 09:00


Яндекс.Метрика powered by Sphinx


В Н И М А Н И Е
Сайт не распространяет и не хранит электронные версии произведений, а лишь бесплатно и без коммерческой выгоды (не требуя взамен платы,
SMS и т.д.) предоставляет доступ к создаваемому пользователями каталогу ссылок на торрент-файлы, которые содержат только списки хеш-сумм.
Убедительная просьба с жалобами обращаться напрямую к пользователю, разместившему торрент файл.

Вверх