Loading...
Error

Красный свет / Red Light (Рой Дель Рут / Roy Del Ruth) [1949, США, фильм-нуар, драма, криминал, DVDRip] VO (Глеб Бусов) + Original Eng

Статистика раздачи
Размер:  1,37 GB   |    Зарегистрирован:  8 месяцев   |    Скачан:  5 раз

Полного источника не было: 5 месяцев 22 дня

Сидов:  0  |  0 KB/s  ]   Личеров:  0  |  0 KB/s  ]

* - сиды/пиры с внешних источников

   
 
Автор Сообщение

Magnat Пол:Муж

06-Июн-2019 18:27

Красный свет / Red Light

Страна: США
Студия: Roy Del Ruth Productions
Жанр: фильм-нуар, драма, криминал
Год выпуска: 1949
Продолжительность: 01:23:20

Перевод: Одноголосый закадровый - Глеб Бусов
Субтитры: нет
Оригинальная аудиодорожка: английский

Режиссер: Рой Дель Рут / Roy Del Ruth
Композитор: Дмитрий Тёмкин / Dimitri Tiomkin

В ролях: Джордж Рафт / George Raft ... Johnny Torno
Вирджиния Майо / Virginia Mayo ... Carla North
Джин Локхарт / Gene Lockhart ... Warni Hazard
Рэймонд Бёрр / Raymond Burr ... Nick Cherney
Гарри Морган / Harry Morgan (в титрах: Henry Morgan) ... Rocky
Бартон МакЛэйн / Barton MacLane ... Detective Strecker
Артур Франц / Arthur Franz ... Capt. Jess Torno (Chaplain)
Кен Мюррэй / Ken Murray ... Ken Murray
Стэнли Клементс / Stanley Clements ... Carlson Hotel Bellhop
Уильям Фроули / William Frawley ... Hotel Night Clerk
Артур Шилдс / Arthur Shields ... Father Redmond
Фрэнк Орт / Frank Orth ... Wallace «Wally» Stoner
Филлип Пайн / Phillip Pine ... Pablo Cabrillo
Уильям «Билл» Филлипс / William «Bill» Phillips (в титрах: William S. Phillips) ... Detective Jim Ryan
Мовита / Movita (в титрах: Movita Castenada) ... Trina


Описание: Экранизация рассказа Дона «Реда» Барри «Этот парень Гидеон».
Владелец транспортной компании Джонни Торно одержим чувством мести за убийство своего брата-священника. Он намеревается найти и покарать преступника, которым оказывается его бывший бухгалтер Черни, которого Джонни в своё время засадил в тюрьму за растрату...

Качество видео: DVDRip
Формат видео: AVI

Видео: XviD, 640x480 (1.33:1), 23.976 fps, 1957 Kbps
Аудио 1: AC3, 48.0 KHz, 2 ch., 192 Kbps (русский одноголосый закадровый перевод) - Глеб Бусов
Аудио 2: AC3, 48.0 KHz, 2 ch., 192 Kbps (оригинальная английская звуковая дорожка)
Общее
Полное имя : I:\раздачи\Red Light 1949\Red Light.avi
Формат : AVI
Формат/Информация : Audio Video Interleave
Размер файла : 1,37 Гбайт
Продолжительность : 1 ч. 23 м.
Общий поток : 2355 Кбит/сек
Программа кодирования : VirtualDubMod 1.5.10.3 | www.virtualdub-fr.org || (build 2550/release)
Библиотека кодирования : VirtualDubMod build 2550/release

Видео
Идентификатор : 0
Формат : MPEG-4 Visual
Профиль формата : Advanced Simple@L5
Параметр BVOP формата : 2
Параметр QPel формата : Нет
Параметр GMC формата : Без точки перехода
Параметр матрицы формата : Default (H.263)
Идентификатор кодека : DX50
Идентификатор кодека/Подсказка : DivX 5
Продолжительность : 1 ч. 23 м.
Битрейт : 1957 Кбит/сек
Ширина : 640 пикселей
Высота : 480 пикселей
Соотношение сторон : 4:3
Частота кадров : 23,976 (24000/1001) кадра/сек
Цветовое пространство : YUV
Субдискретизация насыщенности : 4:2:0
Битовая глубина : 8 бит
Тип развёртки : Прогрессивная
Метод сжатия : С потерями
Бит/(Пиксели*Кадры) : 0.266
Размер потока : 1,14 Гбайт (83%)
Библиотека кодирования : XviD 73

Аудио #1
Идентификатор : 1
Формат : AC-3
Формат/Информация : Audio Coding 3
Параметр Endianness формата : Big
Идентификатор кодека : 2000
Продолжительность : 1 ч. 23 м.
Вид битрейта : Постоянный
Битрейт : 192 Кбит/сек
Каналы : 2 канала
Расположение каналов : Front: L R
Частота : 48,0 КГц
Частота кадров : 31,250 кадров/сек (1536 spf)
Битовая глубина : 16 бит
Метод сжатия : С потерями
Размер потока : 114 Мбайт (8%)
Выравнивание : Разделение по промежуткам
Продолжительность промежутка : 42 мс. (1,00 видеокадр)
Время предзагрузки промежутка : 500 мс.
ServiceKind/String : Complete Main

Аудио #2
Идентификатор : 2
Формат : AC-3
Формат/Информация : Audio Coding 3
Параметр Endianness формата : Big
Идентификатор кодека : 2000
Продолжительность : 1 ч. 23 м.
Вид битрейта : Постоянный
Битрейт : 192 Кбит/сек
Каналы : 2 канала
Расположение каналов : Front: L R
Частота : 48,0 КГц
Частота кадров : 31,250 кадров/сек (1536 spf)
Битовая глубина : 16 бит
Метод сжатия : С потерями
Размер потока : 114 Мбайт (8%)
Выравнивание : Разделение по промежуткам
Продолжительность промежутка : 42 мс. (1,00 видеокадр)
Время предзагрузки промежутка : 500 мс.
ServiceKind/String : Complete Main

Этот торрент недоступен для скачивания без регистрации, однако доступен по публичной magnet-ссылке (источники с публичных трекеров). Перед использованием ссылки прочтите, пожалуйста Пользовательское соглашение, а также как можно дольше оставайтесь на раздаче! Для того, чтобы скачать сам торрент-файл (который видит больше источников), а также для того, чтобы поблагодарить релизера, вам необходимо зарегистрироваться. Если регистрироваться лень - вы можете также попробовать скачать релиз по нашим партнерским ссылкам ниже. Кроме того, зарегистрированным пользователям не показывается всплывающая реклама при скачивании.

[underverse.name].t135274.torrent
Трекер: Зарегистрирован   [ 06.06.2019 18:27 ]  

Статус: проверено (by 90ytr90 at 07.06.2019 10:15)
Поблагодарили: пока никто не поблагодарил...
Тип торрента: публичный - доступные источники с открытых трекеров: 
Размер: 1,37 GB (занимает 0,31 DVDR, для записи нужно 1 болванка DVDR/RW)
 
 

Яндекс.Метрика powered by Sphinx


В Н И М А Н И Е
Сайт не распространяет и не хранит электронные версии произведений, а лишь бесплатно и без коммерческой выгоды (не требуя взамен платы,
SMS и т.д.) предоставляет доступ к создаваемому пользователями каталогу ссылок на торрент-файлы, которые содержат только списки хеш-сумм.
Убедительная просьба с жалобами обращаться напрямую к пользователю, разместившему торрент файл.

Вверх