Loading...
Error

Тобол (Игорь Зайцев) [2019 г., история, драма, BD-Remux] Rus + Ger

Статистика раздачи
Размер:  32,05 GB   |    Зарегистрирован:  1 год 1 месяц   |    Скачан:  12 раз

Полного источника не было: 3 месяца 21 день

Сидов:  0  |  0 KB/s  ]   Личеров:  0  |  0 KB/s  ]

* - сиды/пиры с внешних источников

   
 
Автор Сообщение

makkol Пол:Муж

30-Июн-2019 11:06

Тобол
«Много званых, мало избранных»


Год выпуска: 2019
Жанр: история, драма
Производство: Россия [СургутИнформТВ, Продюсерский центр «Прайм», Solivs, Yellow, Black & White]
Режиссер: Игорь Зайцев
В ролях: Илья Маланин, Дмитрий Назаров, Дмитрий Дюжев, Евгений Дятлов, Агата Муцениеце, Александр Лазарев мл., Андрей Бурковский, Юлия Макарова, Павел Табаков, Еркебулан Даиров
Сюжет фильма:
Молодой офицер новой гвардии Петра I Иван Демарин по заданию царя отправляется в глубину Сибири - в пограничный Тобольск. Здесь Иван встречает свою первую любовь и вместе со своим полком оказывается втянутым в заговор местных князей, охотящихся за золотом Яркенда. Его крепость окружена полчищами диких джунгар и помощи ждать неоткуда...

  • Российская премьера: 21 февраля 2019


Качество видео: BD-Remux

Лицензия (BD GER)

Продолжительность: 01:48:14
Формат: MKV
Видео: MPEG-4 AVC, 1920x1080 (16:9), 23.976 fps, 34.6 Mbps
Аудио #1: немецкий, DTS-HD MA 5.1, 48 kHz, 3921 kbps
Аудио #2: русский, DTS-HD MA 5.1, 48 kHz, 3887 kbps
Субтитры: немецкие форсированные вшитые отключаемые

Код:

General
Unique ID                                : 190615102324396370686853734827673701236 (0x8F672222B1D83D40BE7FAB99ED16CB74)
Complete name                            : die.schlacht.um.sibirien.2019.mkv
Format                                   : Matroska
Format version                           : Version 4
File size                                : 32.0 GiB
Duration                                 : 1 h 48 min
Overall bit rate mode                    : Variable
Overall bit rate                         : 42.4 Mb/s
Encoded date                             : UTC 2019-06-28 04:47:01
Writing application                      : mkvmerge v7.9.0 ('Birds') 64bit
Writing library                          : libebml v1.3.1 + libmatroska v1.4.2

Video
ID                                       : 1
Format                                   : AVC
Format/Info                              : Advanced Video Codec
Format profile                           : High@L4.1
Format settings                          : CABAC / 3 Ref Frames
Format settings, CABAC                   : Yes
Format settings, ReFrames                : 3 frames
Codec ID                                 : V_MPEG4/ISO/AVC
Duration                                 : 1 h 48 min
Bit rate mode                            : Variable
Bit rate                                 : 34.6 Mb/s
Maximum bit rate                         : 37.0 Mb/s
Width                                    : 1 920 pixels
Height                                   : 1 080 pixels
Display aspect ratio                     : 16:9
Frame rate mode                          : Constant
Frame rate                               : 23.976 (24000/1001) FPS
Color space                              : YUV
Chroma subsampling                       : 4:2:0
Bit depth                                : 8 bits
Scan type                                : Progressive
Bits/(Pixel*Frame)                       : 0.695
Stream size                              : 26.1 GiB (82%)
Default                                  : Yes
Forced                                   : No

Audio #1
ID                                       : 2
Format                                   : DTS XLL
Format/Info                              : Digital Theater Systems
Commercial name                          : DTS-HD Master Audio
Codec ID                                 : A_DTS
Duration                                 : 1 h 48 min
Bit rate mode                            : Variable
Bit rate                                 : 3 921 kb/s
Channel(s)                               : 6 channels
Channel layout                           : C L R Ls Rs LFE
Sampling rate                            : 48.0 kHz
Frame rate                               : 93.750 FPS (512 SPF)
Bit depth                                : 24 bits
Compression mode                         : Lossless
Stream size                              : 2.96 GiB (9%)
Title                                    : dts
Language                                 : German
Default                                  : Yes
Forced                                   : No

Audio #2
ID                                       : 3
Format                                   : DTS XLL
Format/Info                              : Digital Theater Systems
Commercial name                          : DTS-HD Master Audio
Codec ID                                 : A_DTS
Duration                                 : 1 h 48 min
Bit rate mode                            : Variable
Bit rate                                 : 3 887 kb/s
Channel(s)                               : 6 channels
Channel layout                           : C L R Ls Rs LFE
Sampling rate                            : 48.0 kHz
Frame rate                               : 93.750 FPS (512 SPF)
Bit depth                                : 24 bits
Compression mode                         : Lossless
Stream size                              : 2.94 GiB (9%)
Title                                    : dts
Language                                 : Russian
Default                                  : No
Forced                                   : No

Text
ID                                       : 4
Format                                   : UTF-8
Codec ID                                 : S_TEXT/UTF8
Codec ID/Info                            : UTF-8 Plain Text
Duration                                 : 1 h 26 min
Bit rate                                 : 0 b/s
Count of elements                        : 2
Stream size                              : 37.0 Bytes (0%)
Title                                    : forced
Language                                 : German
Default                                  : Yes
Forced                                   : No

Menu
00:00:00.000                             : de:00:00:00.000
00:09:42.624                             : de:00:09:42.624
00:18:23.811                             : de:00:18:23.811
00:28:32.252                             : de:00:28:32.252
00:37:53.480                             : de:00:37:53.480
00:47:07.491                             : de:00:47:07.491
00:55:04.301                             : de:00:55:04.301
01:05:02.315                             : de:01:05:02.315
01:14:37.973                             : de:01:14:37.973
01:21:39.853                             : de:01:21:39.853
01:33:04.662                             : de:01:33:04.662
01:42:13.419                             : de:01:42:13.419
Релиз:

picpicpicpic
Для увеличения картинки щелкните мышкой по превью

Этот торрент недоступен для скачивания без регистрации, однако доступен по публичной magnet-ссылке (источники с публичных трекеров). Перед использованием ссылки прочтите, пожалуйста Пользовательское соглашение, а также как можно дольше оставайтесь на раздаче! Для того, чтобы скачать сам торрент-файл (который видит больше источников), а также для того, чтобы поблагодарить релизера, вам необходимо зарегистрироваться. Если регистрироваться лень - вы можете также попробовать скачать релиз по нашим партнерским ссылкам ниже. Кроме того, зарегистрированным пользователям не показывается всплывающая реклама при скачивании.

[underverse.name].t137144.torrent
Трекер: Зарегистрирован   [ 30.06.2019 11:06 ]  

Статус: проверено (by makkol at 30.06.2019 11:09)
Поблагодарили: 1 человек
Тип торрента: публичный - доступные источники с открытых трекеров: 
Размер: 32,05 GB (занимает 7,32 DVDR, для записи нужно 8 болванок DVDR/RW)
 
 
Похожие темы
Форум Тема Автор Торрент Отв. Посл. сооб.
Наше кино [DVDRip, Low-Res HDRip, и т.д.] Тобол (Игорь Зайцев) [2019 г., история, драма, BDRip] makkol
178 | 2

0 | 331

24

29.06.2019 20:28

Наше кино [DVDRip, Low-Res HDRip, и т.д.] Тобол (Игорь Зайцев) [2019 г., история, драма, BDRip-AVC] makkol
10 | 0

0 | 332

11

30.06.2019 10:39

Наше кино [HDDVDRip / BDRip / WEB-DL / HDTV 1080/720р] Тобол (Игорь Зайцев) [2019 г., история, драма, BDRip 720p] makkol
11 | 0

0 | 283

13

30.06.2019 10:46

Наше кино [HDDVDRip / BDRip / WEB-DL / HDTV 1080/720р] Тобол (Игорь Зайцев) [2019 г., история, драма, BDRip 1080p] makkol
19 | 1

1 | 349

20

13.07.2019 12:51


Яндекс.Метрика powered by Sphinx


В Н И М А Н И Е
Сайт не распространяет и не хранит электронные версии произведений, а лишь бесплатно и без коммерческой выгоды (не требуя взамен платы,
SMS и т.д.) предоставляет доступ к создаваемому пользователями каталогу ссылок на торрент-файлы, которые содержат только списки хеш-сумм.
Убедительная просьба с жалобами обращаться напрямую к пользователю, разместившему торрент файл.

Вверх