Loading...
Error

Спасти Ленинград (Алексей Козлов) [2019 г., драма, военный, BD-Remux] Rus + Ger + Sub (Rus, Eng)

Статистика раздачи
Размер:  29,11 GB   |    Зарегистрирован:  1 год 1 месяц   |    Скачан:  15 раз

Полного источника не было: 1 месяц 11 дней

Сидов:  0  |  0 KB/s  ]   Личеров:  0  |  0 KB/s  ]

* - сиды/пиры с внешних источников

   
 
Автор Сообщение

makkol Пол:Муж

02-Июл-2019 12:00

Спасти Ленинград


Год выпуска: 2019
Жанр: драма, военный
Производство: Россия [АВК продакшн]
Режиссер: Алексей Козлов
В ролях: Мария Мельникова, Андрей Миронов-Удалов, Гела Месхи, Анастасия Мельникова, Сергей Жарков, Иван Лырчиков, Валерий Дегтярь, Михаил Морозов, Николай Горшков, Евгения Любимова
Сюжет фильма:
Сентябрь 1941 года. Юные влюбленные Костя и Настя волею обстоятельств оказываются на барже, которая должна вывезти людей из блокадного Ленинграда. Ночью судно попадает в шторм и терпит бедствие, на месте трагедии первыми оказываются вовсе не спасатели, а вражеские самолеты.

  • Мировая премьера: 7 февраля 2019
  • Российская премьера: 27 января 2019


Качество видео: BD-Remux

Лицензия (BD GER)

Продолжительность: 01:37:14
Формат: MKV
Видео: MPEG-4 AVC, 1920x1080 (16:9), 24.000 fps, 33.5 Mbps
Аудио #1: русский, AC3 5.1, 48 kHz, 640 kbps
Аудио #2: русский, DTS-HD MA 5.1, 48 kHz, 4349 kbps
Аудио #3: немецкий, DTS-HD MA 5.1, 48 kHz, 4343 kbps
Субтитры: русские, английские вшитые отключаемые

Код:

Общее
Уникальный идентификатор : 185656884562704835683915026163406582067 (0x8BAC37204430EEFD215DED6C61B5B133)
Полное имя : Flucht aus Leningrad.2019.Remux.W.mkv
Формат : Matroska
Версия формата : Version 4
Размер файла : 29,1 Гбайт
Продолжительность : 1 ч. 37 м.
Режим общего битрейта : Переменный
Общий поток : 42,8 Мбит/сек
Название фильма : Спасти Ленинград.2019.Remux.W
Дата кодирования : UTC 2019-07-01 13:44:20
Программа кодирования : mkvmerge v23.0.0 ('The Bride Said No') 64-bit
Библиотека кодирования : libebml v1.3.6 + libmatroska v1.4.9

Видео
Идентификатор : 1
Формат : AVC
Формат/Информация : Advanced Video Codec
Профиль формата : High@L4.1
Настройки формата : CABAC / 4 Ref Frames
Параметр CABAC формата : Да
Параметр RefFrames формата : 4 кадра
Идентификатор кодека : V_MPEG4/ISO/AVC
Продолжительность : 1 ч. 37 м.
Вид битрейта : Переменный
Битрейт : 33,5 Мбит/сек
Максимальный битрейт : 36,0 Мбит/сек
Ширина : 1920 пикселей
Высота : 1080 пикселей
Соотношение сторон : 16:9
Режим частоты кадров : Постоянный
Частота кадров : 24,000 кадра/сек
Цветовое пространство : YUV
Субдискретизация насыщенности : 4:2:0
Битовая глубина : 8 бит
Тип развёртки : Прогрессивная
Бит/(Пиксели*Кадры) : 0.674
Размер потока : 22,8 Гбайт (78%)
Язык : Russian
Default : Да
Forced : Нет

Аудио #1
Идентификатор : 2
Формат : AC-3
Формат/Информация : Audio Coding 3
Коммерческое название : Dolby Digital
Идентификатор кодека : A_AC3
Продолжительность : 1 ч. 37 м.
Вид битрейта : Постоянный
Битрейт : 640 Кбит/сек
Каналы : 6 каналов
ChannelLayout : L R C LFE Ls Rs
Частота : 48,0 КГц
Частота кадров : 31,250 кадров/сек (1536 SPF)
Битовая глубина : 16 бит
Метод сжатия : С потерями
Размер потока : 445 Мбайт (1%)
Язык : Russian
ServiceKind : Complete Main
Default : Да
Forced : Нет

Аудио #2
Идентификатор : 3
Формат : DTS XLL
Формат/Информация : Digital Theater Systems
Коммерческое название : DTS-HD Master Audio
Идентификатор кодека : A_DTS
Продолжительность : 1 ч. 37 м.
Вид битрейта : Переменный
Битрейт : 4349 Кбит/сек
Каналы : 6 каналов
ChannelLayout : C L R Ls Rs LFE
Частота : 48,0 КГц
Частота кадров : 93,750 кадра/сек (512 SPF)
Битовая глубина : 24 бит
Метод сжатия : Без потерь
Размер потока : 2,95 Гбайт (10%)
Язык : Russian
Default : Нет
Forced : Нет

Аудио #3
Идентификатор : 4
Формат : DTS XLL
Формат/Информация : Digital Theater Systems
Коммерческое название : DTS-HD Master Audio
Идентификатор кодека : A_DTS
Продолжительность : 1 ч. 37 м.
Вид битрейта : Переменный
Битрейт : 4336 Кбит/сек
Каналы : 6 каналов
ChannelLayout : C L R Ls Rs LFE
Частота : 48,0 КГц
Частота кадров : 93,750 кадра/сек (512 SPF)
Битовая глубина : 24 бит
Метод сжатия : Без потерь
Размер потока : 2,95 Гбайт (10%)
Язык : German
Default : Нет
Forced : Нет

Текст #1
Идентификатор : 5
Формат : UTF-8
Идентификатор кодека : S_TEXT/UTF8
Идентификатор кодека/Информация : UTF-8 Plain Text
Продолжительность : 1 ч. 29 м.
Битрейт : 81 бит/сек
ElementCount : 1072
Размер потока : 53,4 Кбайт (0%)
Язык : Russian
Default : Нет
Forced : Нет

Текст #2
Идентификатор : 6
Формат : UTF-8
Идентификатор кодека : S_TEXT/UTF8
Идентификатор кодека/Информация : UTF-8 Plain Text
Продолжительность : 1 ч. 30 м.
Битрейт : 46 бит/сек
ElementCount : 984
Размер потока : 30,6 Кбайт (0%)
Язык : English
Default : Нет
Forced : Нет

Меню
00:00:00.000 : en:Chapter 1
00:03:01.750 : en:Chapter 2
00:09:04.625 : en:Chapter 3
00:15:37.333 : en:Chapter 4
00:22:33.750 : en:Chapter 5
00:30:36.625 : en:Chapter 6
00:34:29.833 : en:Chapter 7
00:38:24.541 : en:Chapter 8
00:43:42.250 : en:Chapter 9
00:48:45.916 : en:Chapter 10
00:53:19.875 : en:Chapter 11
00:58:40.916 : en:Chapter 12
01:07:26.041 : en:Chapter 13
01:13:26.750 : en:Chapter 14
01:18:02.541 : en:Chapter 15
01:22:38.416 : en:Chapter 16
01:26:42.583 : en:Chapter 17
01:30:54.708 : en:Chapter 18
picpicpicpic
Для увеличения картинки щелкните мышкой по превью

Этот торрент недоступен для скачивания без регистрации, однако доступен по публичной magnet-ссылке (источники с публичных трекеров). Перед использованием ссылки прочтите, пожалуйста Пользовательское соглашение, а также как можно дольше оставайтесь на раздаче! Для того, чтобы скачать сам торрент-файл (который видит больше источников), а также для того, чтобы поблагодарить релизера, вам необходимо зарегистрироваться. Если регистрироваться лень - вы можете также попробовать скачать релиз по нашим партнерским ссылкам ниже. Кроме того, зарегистрированным пользователям не показывается всплывающая реклама при скачивании.

[underverse.name].t137224.torrent
Трекер: Зарегистрирован   [ 02.07.2019 12:00 ]  

Статус: проверено (by makkol at 02.07.2019 12:01)
Поблагодарили: пока никто не поблагодарил...
Тип торрента: публичный - доступные источники с открытых трекеров: 
Размер: 29,11 GB (занимает 6,65 DVDR, для записи нужно 7 болванок DVDR/RW)
 
 
Похожие темы
Форум Тема Автор Торрент Отв. Посл. сооб.
Наше кино [DVDRip, Low-Res HDRip, и т.д.] Спасти Ленинград (Алексей Козлов) [2019 г., драма, военный, BDRip] makkol
259 | 7

0 | 313

20

02.07.2019 11:30

Наше кино [DVDRip, Low-Res HDRip, и т.д.] Спасти Ленинград (Алексей Козлов) [2019 г., драма, военный, BDRip-AVC] makkol
17 | 0

0 | 302

5

02.07.2019 11:39

Наше кино [HDDVDRip / BDRip / WEB-DL / HDTV 1080/720р] Спасти Ленинград (Алексей Козлов) [2019 г., драма, военный, BDRip 720p] makkol
46 | 5

0 | 314

16

02.07.2019 11:44

Наше кино [HDDVDRip / BDRip / WEB-DL / HDTV 1080/720р] Спасти Ленинград (Алексей Козлов) [2019 г., драма, военный, BDRip 1080p] makkol
27 | 3

0 | 453

28

02.07.2019 11:50


Яндекс.Метрика powered by Sphinx


В Н И М А Н И Е
Сайт не распространяет и не хранит электронные версии произведений, а лишь бесплатно и без коммерческой выгоды (не требуя взамен платы,
SMS и т.д.) предоставляет доступ к создаваемому пользователями каталогу ссылок на торрент-файлы, которые содержат только списки хеш-сумм.
Убедительная просьба с жалобами обращаться напрямую к пользователю, разместившему торрент файл.

Вверх