Loading...
Error

Прощание (Евгений Осин) [2019 г., документальный, биография, музыка, SatRip]

Статистика раздачи
Размер:  514 MB   |    Зарегистрирован:  2 месяца 12 дней   |    Скачан:  0 раз

Полного источника не было: 1 месяц 25 дней

Сидов:  0  |  0 KB/s  ]   Личеров:  0  |  0 KB/s  ]

* - сиды/пиры с внешних источников

   
 
Автор Сообщение

ARI71 Пол:Муж

11-Июл-2019 08:28

Прощание (Евгений Осин)


Год выпуска: 2019
Жанр: документальный, биография, музыка
Страна: Россия ТВЦ
В ролях: Евгений Осин
Сюжет фильма:
Он умер в одиночестве, в застывшей руке была рюмка... Лечение за границей и бесконечная наркологическая эпопея в России не спасли жизнь певца Евгения Осина. Автор знаменитой "Девочки в автомате", лихо выплясывающий в 96-м году на одной сцене рядом с Ельциным, растерял в нулевые всё – успех, семью, радость жизни, себя... Прощание с ним больше интересовало журналистов, чем его друзей и близких. К концу жизни от Осина отвернулись почти все...

Евге́ний Ви́кторович О́син (4 октября 1964 года, Москва — 17 ноября 2018 года, там же) — советский и российский певец, музыкант, автор песен. Известен оригинальным жанром исполнения, совмещающим так называемую дворовую романтическую музыку с эстрадными ритмами и рок-н-роллом.
Качество видео: SatRip

Продолжительность: 00:41:20
Формат: AVI
Видео: XviD, 704х400, 1600 kbps
Аудио: русский, MP3 2.0, 128 kbps

Код:

Общее
Полное имя : Прощание.Евгений Осин.2019.SATRip.avi
Формат : AVI
Формат/Информация : Audio Video Interleave
Размер файла : 514 Мбайт
Продолжительность : 41 м. 20 с.
Общий поток : 1738 Кбит/сек
Программа кодирования : VirtualDubMod 1.5.10.3 | www.virtualdub-fr.org || (build 2550/release)
Библиотека кодирования : VirtualDubMod build 2550/release

Видео
Идентификатор : 0
Формат : MPEG-4 Visual
Профиль формата : Advanced Simple@L5
Настройки формата : BVOP2
Параметр BVOP формата : 2
Параметр QPel формата : Нет
Параметр GMC формата : Без точки перехода
Параметр матрицы формата : Default (MPEG)
Идентификатор кодека : XVID
Идентификатор кодека/Подсказка : XviD
Продолжительность : 41 м. 20 с.
Битрейт : 1600 Кбит/сек
Ширина : 704 пикселя
Высота : 400 пикселей
Соотношение сторон : 16:9
Частота кадров : 25,000 кадров/сек
Цветовое пространство : YUV
Субдискретизация насыщенности : 4:2:0
Битовая глубина : 8 бит
Тип развёртки : Прогрессивная
Метод сжатия : С потерями
Бит/(Пиксели*Кадры) : 0.227
Размер потока : 473 Мбайт (92%)
Библиотека кодирования : XviD 73

Аудио
Идентификатор : 1
Формат : MPEG Audio
Версия формата : Version 1
Профиль формата : Layer 3
Идентификатор кодека : 55
Идентификатор кодека/Подсказка : MP3
Продолжительность : 41 м. 20 с.
Вид битрейта : Постоянный
Битрейт : 128 Кбит/сек
Каналы : 2 канала
Частота : 48,0 КГц
Частота кадров : 41,667 кадра/сек (1152 SPF)
Метод сжатия : С потерями
Размер потока : 37,9 Мбайт (7%)
Выравнивание : Соединение по промежуткам
Продолжительность промежутка : 40 мс. (1,00 видеокадр)
Время предзагрузки промежутка : 504 мс.
Библиотека кодирования : LAME3.99r
Настройки программы : -m s -V 4 -q 2 -lowpass 17 -b 128
picpicpicpic
Для увеличения картинки щелкните мышкой по превью

Этот торрент недоступен для скачивания без регистрации, однако доступен по публичной magnet-ссылке (источники с публичных трекеров). Перед использованием ссылки прочтите, пожалуйста Пользовательское соглашение, а также как можно дольше оставайтесь на раздаче! Для того, чтобы скачать сам торрент-файл (который видит больше источников), а также для того, чтобы поблагодарить релизера, вам необходимо зарегистрироваться. Если регистрироваться лень - вы можете также попробовать скачать релиз по нашим партнерским ссылкам ниже. Кроме того, зарегистрированным пользователям не показывается всплывающая реклама при скачивании.

[underverse.name].t137979.torrent
Трекер: Зарегистрирован   [ 11.07.2019 08:28 ]  

Статус: проверено (by ARI71 at 11.07.2019 08:29)
Поблагодарили: пока никто не поблагодарил...
Тип торрента: публичный - доступные источники с открытых трекеров: 
Размер: 514 MB (занимает 0,11 DVDR, для записи нужно 1 болванка DVDR/RW)
 
 
Похожие темы
Форум Тема Автор Торрент Отв. Посл. сооб.
Личности Прощание (Михаил Козаков) [2018 г., документальный, биография, искусство, IPTVRip] ARI71
0 | 0

0 | 490

5

17.05.2018 10:34

Личности Прощание (Дмитрий Марьянов) [2018 г., документальный, биография, театр, кинематограф, IPTVRip] ARI71
0 | 0

0 | 711

5

07.10.2018 17:42

Личности Прощание (Михаил Шолохов) [2019 г., документальный, биография, литература, IPTVRip] ARI71
0 | 0

0 | 106

2

09.07.2019 10:41

Личности Прощание (Аркадий Райкин) [2018 г., документальный, биография, кинематограф, театр, IPTVRip] ARI71
1 | 0

0 | 138

1

09.07.2019 11:25

Личности Прощание (Муслим Магомаев) [2019 г., документальный, биография, искусство, IPTVRip] ARI71
1 | 0

0 | 121

2

09.07.2019 12:17

Личности Прощание (42 серии) [2016-2018 г., документальный, биография, воспоминания, DVB] ARI71
0 | 0

0 | 85

1

04.08.2019 14:48

Архив (документальное кино) Прощание (Нонна Мордюкова) [2016 г., документальный, биография, IPTVRip] ARI71
0 | 0

1 | 885

2

25.05.2018 15:25

Архив (документальное кино) Прощание (Юрий Щекочихин) [2016 г., документальный, биография, политика, IPTVRip] ARI71
0 | 0

1 | 581

2

31.01.2018 19:16

Архив (документальное кино) Прощание (Любовь Полищук) [2016 г., документальный, биография, история, IPTVRip] ARI71
0 | 0

1 | 695

0

31.01.2018 19:16

Архив (документальное кино) Прощание (Игорь Тальков) [2016 г., документальный, биография, история, IPTVRip] ARI71
0 | 1

1 | 815

1

25.05.2018 15:25


Яндекс.Метрика powered by Sphinx


В Н И М А Н И Е
Сайт не распространяет и не хранит электронные версии произведений, а лишь бесплатно и без коммерческой выгоды (не требуя взамен платы,
SMS и т.д.) предоставляет доступ к создаваемому пользователями каталогу ссылок на торрент-файлы, которые содержат только списки хеш-сумм.
Убедительная просьба с жалобами обращаться напрямую к пользователю, разместившему торрент файл.

Вверх