Loading...
Error

Суперкубок Украины 2019. Динамо (Киев) - Шахтер (Донецк) [28.07.2019 г., Футбол, HDTVRip 720р] Original (Ukr)

Статистика раздачи
Размер:  3,1 GB   |    Зарегистрирован:  2 месяца 22 дня   |    Скачан:  1 раз

Полного источника не было: 2 месяца 21 день

Сидов:  0  |  0 KB/s  ]   Личеров:  0  |  0 KB/s  ]

* - сиды/пиры с внешних источников

   
 
Автор Сообщение

ARI71 Пол:Муж

29-Июл-2019 12:54

Суперкубок Украины 2019. Динамо (Киев) - Шахтер (Донецк)


Год выпуска: 28.07.2019
Вид спорта: Футбол
Страна: Украина стадион "Черноморец" (Одесса)
Описание:
Суперкубок Украины 2019 между командами - Динамо (Киев) - Шахтер (Донецк).
Качество видео: HDTVRip 720р

Продолжительность: 02:07:00
Формат: MKV
Видео: MPEG-4 AVC, 1280x720, 3289 kbps
Аудио: украинский, оригинал, AC3 2.0, 128 kbps

Код:

Общее
Уникальный идентификатор : 158463005919957713549272092910238385928 (0x7736DD64B478AC16ED9C5DEF66BD4708)
Полное имя : Суперкубок Украины 2019 ДК-ШД (720р).mkv
Формат : Matroska
Версия формата : Version 2
Размер файла : 3,10 Гбайт
Продолжительность : 2 ч. 7 м.
Общий поток : 3486 Кбит/сек
Программа кодирования : Lavf54.63.104
Библиотека кодирования : Lavf54.63.104

Видео
Идентификатор : 1
Формат : AVC
Формат/Информация : Advanced Video Codec
Профиль формата : High@L3.2
Настройки формата : CABAC / 4 Ref Frames
Параметр CABAC формата : Да
Параметр RefFrames формата : 4 кадра
Идентификатор кодека : V_MPEG4/ISO/AVC
Продолжительность : 2 ч. 7 м.
Битрейт : 3289 Кбит/сек
Ширина : 1280 пикселей
Высота : 720 пикселей
Соотношение сторон : 16:9
Режим частоты кадров : Постоянный
Частота кадров : 50,000 кадров/сек
Цветовое пространство : YUV
Субдискретизация насыщенности : 4:2:0
Битовая глубина : 8 бит
Тип развёртки : Прогрессивная
Бит/(Пиксели*Кадры) : 0.071
Размер потока : 2,92 Гбайт (94%)
Default : Нет
Forced : Нет

Аудио
Идентификатор : 2
Формат : AC-3
Формат/Информация : Audio Coding 3
Коммерческое название : Dolby Digital
Идентификатор кодека : A_AC3
Продолжительность : 2 ч. 7 м.
Вид битрейта : Постоянный
Битрейт : 128 Кбит/сек
Каналы : 2 канала
Channel layout : L R
Частота : 48,0 КГц
Частота кадров : 31,250 кадров/сек (1536 SPF)
Битовая глубина : 16 бит
Метод сжатия : С потерями
Размер потока : 116 Мбайт (4%)
Язык : Ukrainian
ServiceKind/String : Complete Main
Default : Да
Forced : Нет
picpicpicpicpic
Для увеличения картинки щелкните мышкой по превью

Этот торрент недоступен для скачивания без регистрации, однако доступен по публичной magnet-ссылке (источники с публичных трекеров). Перед использованием ссылки прочтите, пожалуйста Пользовательское соглашение, а также как можно дольше оставайтесь на раздаче! Для того, чтобы скачать сам торрент-файл (который видит больше источников), а также для того, чтобы поблагодарить релизера, вам необходимо зарегистрироваться. Если регистрироваться лень - вы можете также попробовать скачать релиз по нашим партнерским ссылкам ниже. Кроме того, зарегистрированным пользователям не показывается всплывающая реклама при скачивании.

[underverse.name].t139649.torrent
Трекер: Зарегистрирован   [ 29.07.2019 12:54 ]  

Статус: проверено (by ARI71 at 29.07.2019 12:54)
Поблагодарили: пока никто не поблагодарил...
Тип торрента: публичный - доступные источники с открытых трекеров: 
Размер: 3,1 GB (занимает 0,71 DVDR, для записи нужно 1 болванка DVDR/RW)
 
 
Похожие темы
Форум Тема Автор Торрент Отв. Посл. сооб.
Архив (спортивное видео) Суперкубок России 2015 Зенит (Санкт-Петербург) - Локомотив (Москва) [2015 г., Футбол, TS] IlyaSaint
0 | 0

2 | 1018

2

31.01.2018 19:27


Яндекс.Метрика powered by Sphinx


В Н И М А Н И Е
Сайт не распространяет и не хранит электронные версии произведений, а лишь бесплатно и без коммерческой выгоды (не требуя взамен платы,
SMS и т.д.) предоставляет доступ к создаваемому пользователями каталогу ссылок на торрент-файлы, которые содержат только списки хеш-сумм.
Убедительная просьба с жалобами обращаться напрямую к пользователю, разместившему торрент файл.

Вверх