Loading...
Error

Годзилла 2: Король монстров / Godzilla: King of the Monsters (Майкл Догерти / Michael Dougherty) [2019 г., фантастика, фэнтези, боевик, приключения, BDRemux 1080p] Dub (Rus.iTunes) + MVO (HDRezka Studio) + Dub (Ukr.iTunes) + Original (Eng) + Subs

Статистика раздачи
Размер:  24,84 GB   |    Зарегистрирован:  24 дня   |    Скачан:  9 раз

Полного источника не было: 1 день 6 часов

Сидов:  0  |  0 KB/s  ]   Личеров:  0  |  0 KB/s  ]

* - сиды/пиры с внешних источников

   
 
Автор Сообщение

90ytr90 

24-Авг-2019 22:41

Годзилла 2: Король монстров / Godzilla: King of the Monsters
«Let them fight!»

Страна: США, Япония
Год выпуска: 2019
Жанр: фантастика, фэнтези, боевик, приключения
Продолжительность: 02:11:42
Озвучивание:
  • профессиональное (полное дублирование) [русский (iTunes)]
  • профессиональное (многоголосое закадровое) [HDRezka Studio]
  • профессиональное (полное дублирование) [украинский (iTunes)]
  • оригинальная звуковая дорожка [английский]

Режиссёр: Майкл Догерти / Michael Dougherty

В ролях:
Кайл Чандлер, Вера Фармига, Милли Бобби Браун, Кэн Ватанабэ, Цзыи Чжан, Брэдли Уитфорд, Салли Хокинс, Чарльз Дэнс, Томас Миддлдитч, Аиша Хайндс, О`Ши Джексон мл., Дэвид Стрэтэйрн, Энтони Рамос, Элизабет Ладлоу, Джонатан Ховард, Си Си Эйч Паундер, Джо Мортон, Тайлер Крумли, Келли Гарнер


Сюжет фильма:
История рассказывает о героических усилиях криптозоологического агентства «Монарх» по сдерживанию гигантских монстров. В этот раз против могучего Годзиллы выступают Мотра, Родан и ультимативный кайдзю - трёхголовый монстр Кинг Гидора. Когда эти древние суперхищники, со временем превратившиеся в полузабытые мифы, восстают снова, чтобы сойтись в схватке, человечеству остаётся отойти в сторонку и постараться не погибнуть.

  • Дата мировой премьеры: 29 мая 2019
  • Дата российской премьеры: 30 мая 2019, «Каро-Премьер» 3D
             
Качество видео: BDRemux 1080p
Формат: MKV
Видео: AVC, 1920x1080 (16:9), 21.9 Mbps, 23.976 (24000/1001) fps, 0.441 bit/pixel
Аудио #1: AC3, 384 kbps, 6 ch, 48 kHz, Dub [Russian (iTunes)]
Аудио #2: AC3, 192 kbps, 2 ch, 48 kHz, MVO [HDRezka Studio]
Аудио #3: AC3, 160 kbps, 2 ch, 48 kHz, Dub [Ukrainian (iTunes)]
Аудио #4: TrueHD, 3797 kbps, 8 ch, 48 kHz, Original [English]
Аудио #5: AC3, 448 kbps, 6 ch, 48 kHz, Original [English]
Субтитры: Russian (forced, full), Ukrainian (forced), English (full, SDH)
Навигация по главам: есть (13)

Сборка: seleZen
 General 
Unique ID : 145891644866136434859769072859128923278 (0x6DC1B570885382EB85BC13643E92048E)
Complete name : D:Video111Godzilla.King.of.the.Monsters.2019.BDREMUX.1080p.seleZen.mkv
Format : Matroska
Format version : Version 4
File size : 24.8 GiB
Duration : 2 h 11 min
Overall bit rate mode : Variable
Overall bit rate : 27.0 Mb/s
Movie name : Godzilla King of the Monsters 2019 from селезень
Encoded date : UTC 2019-08-18 15:39:13
Writing application : mkvmerge v22.0.0 ('At The End Of The World') 64-bit
Writing library : libebml v1.3.5 + libmatroska v1.4.8

Video
ID : 1
Format : AVC
Format/Info : Advanced Video Codec
Format profile : High@L4.1
Format settings : CABAC / 2 Ref Frames
Format settings, CABAC : Yes
Format settings, Reference : 2 frames
Format settings, GOP : M=1, N=10
Codec ID : V_MPEG4/ISO/AVC
Duration : 2 h 11 min
Bit rate mode : Variable
Bit rate : 21.9 Mb/s
Width : 1 920 pixels
Height : 1 080 pixels
Display aspect ratio : 16:9
Frame rate mode : Constant
Frame rate : 23.976 (24000/1001) FPS
Color space : YUV
Chroma subsampling : 4:2:0
Bit depth : 8 bits
Scan type : Progressive
Bits/(Pixel*Frame) : 0.441
Stream size : 20.2 GiB (81%)
Language : English
Default : Yes
Forced : No

Audio #1
ID : 2
Format : AC-3
Format/Info : Audio Coding 3
Commercial name : Dolby Digital
Codec ID : A_AC3
Duration : 2 h 11 min
Bit rate mode : Constant
Bit rate : 384 kb/s
Channel(s) : 6 channels
Channel layout : L R C LFE Ls Rs
Sampling rate : 48.0 kHz
Frame rate : 31.250 FPS (1536 SPF)
Bit depth : 16 bits
Compression mode : Lossy
Stream size : 362 MiB (1%)
Title : Dub [iTunes]
Language : Russian
Service kind : Complete Main
Default : Yes
Forced : Yes

Audio #2
ID : 3
Format : AC-3
Format/Info : Audio Coding 3
Commercial name : Dolby Digital
Codec ID : A_AC3
Duration : 2 h 11 min
Bit rate mode : Constant
Bit rate : 192 kb/s
Channel(s) : 2 channels
Channel layout : L R
Sampling rate : 48.0 kHz
Frame rate : 31.250 FPS (1536 SPF)
Bit depth : 16 bits
Compression mode : Lossy
Stream size : 181 MiB (1%)
Title : MVO [HDRezka Studio]
Language : Russian
Service kind : Complete Main
Default : No
Forced : No

Audio #3
ID : 4
Format : AC-3
Format/Info : Audio Coding 3
Commercial name : Dolby Digital
Codec ID : A_AC3
Duration : 2 h 11 min
Bit rate mode : Constant
Bit rate : 160 kb/s
Channel(s) : 2 channels
Channel layout : L R
Sampling rate : 48.0 kHz
Frame rate : 31.250 FPS (1536 SPF)
Bit depth : 16 bits
Compression mode : Lossy
Stream size : 151 MiB (1%)
Title : Dub [iTunes]
Language : Ukrainian
Service kind : Complete Main
Default : No
Forced : No

Audio #4
ID : 5
Format : MLP FBA 16-ch
Format/Info : Meridian Lossless Packing FBA with 16-channel presentation
Commercial name : Dolby TrueHD with Dolby Atmos
Codec ID : A_TRUEHD
Duration : 2 h 11 min
Bit rate mode : Variable
Bit rate : 3 797 kb/s
Maximum bit rate : 6 537 kb/s
Channel(s) : 8 channels
Channel layout : L R C LFE Ls Rs Lb Rb
Sampling rate : 48.0 kHz
Frame rate : 1 200.000 FPS (40 SPF)
Compression mode : Lossless
Stream size : 3.49 GiB (14%)
Title : Original
Language : English
Default : No
Forced : No
Number of dynamic objects : 15
Bed channel count : 1 channel
Bed channel configuration : LFE

Audio #5
ID : 6
Format : AC-3
Format/Info : Audio Coding 3
Commercial name : Dolby Digital
Codec ID : A_AC3
Duration : 2 h 11 min
Bit rate mode : Constant
Bit rate : 448 kb/s
Channel(s) : 6 channels
Channel layout : L R C LFE Ls Rs
Sampling rate : 48.0 kHz
Frame rate : 31.250 FPS (1536 SPF)
Bit depth : 16 bits
Compression mode : Lossy
Stream size : 422 MiB (2%)
Language : English
Service kind : Complete Main
Default : No
Forced : No

Text #1
ID : 7
Format : UTF-8
Codec ID : S_TEXT/UTF8
Codec ID/Info : UTF-8 Plain Text
Duration : 2 h 8 min
Bit rate : 1 b/s
Count of elements : 24
Stream size : 1.42 KiB (0%)
Title : Forced
Language : Russian
Default : Yes
Forced : Yes

Text #2
ID : 8
Format : UTF-8
Codec ID : S_TEXT/UTF8
Codec ID/Info : UTF-8 Plain Text
Duration : 2 h 10 min
Bit rate : 77 b/s
Count of elements : 1372
Stream size : 74.2 KiB (0%)
Title : Full
Language : Russian
Default : No
Forced : No

Text #3
ID : 9
Format : UTF-8
Codec ID : S_TEXT/UTF8
Codec ID/Info : UTF-8 Plain Text
Duration : 2 h 9 min
Bit rate : 5 b/s
Count of elements : 73
Stream size : 4.92 KiB (0%)
Title : Forced
Language : Ukrainian
Default : No
Forced : No

Text #4
ID : 10
Format : UTF-8
Codec ID : S_TEXT/UTF8
Codec ID/Info : UTF-8 Plain Text
Duration : 2 h 10 min
Bit rate : 42 b/s
Count of elements : 1482
Stream size : 40.9 KiB (0%)
Title : Full
Language : English
Default : No
Forced : No

Text #5
ID : 11
Format : UTF-8
Codec ID : S_TEXT/UTF8
Codec ID/Info : UTF-8 Plain Text
Duration : 2 h 11 min
Bit rate : 51 b/s
Count of elements : 1857
Stream size : 49.7 KiB (0%)
Title : SDH
Language : English
Default : No
Forced : No

Menu
00:00:00.000 : en:Chapter 1
00:10:53.903 : en:Chapter 2
00:18:06.835 : en:Chapter 3
00:30:27.325 : en:Chapter 4
00:45:18.632 : en:Chapter 5
00:54:11.039 : en:Chapter 6
01:05:41.646 : en:Chapter 7
01:09:31.584 : en:Chapter 8
01:19:31.308 : en:Chapter 9
01:30:06.234 : en:Chapter 10
01:38:36.869 : en:Chapter 11
01:49:58.883 : en:Chapter 12
01:59:28.828 : en:Chapter 13


pic pic pic pic pic

Этот торрент недоступен для скачивания без регистрации, однако доступен по публичной magnet-ссылке (источники с публичных трекеров). Перед использованием ссылки прочтите, пожалуйста Пользовательское соглашение, а также как можно дольше оставайтесь на раздаче! Для того, чтобы скачать сам торрент-файл (который видит больше источников), а также для того, чтобы поблагодарить релизера, вам необходимо зарегистрироваться. Если регистрироваться лень - вы можете также попробовать скачать релиз по нашим партнерским ссылкам ниже. Кроме того, зарегистрированным пользователям не показывается всплывающая реклама при скачивании.

[underver.se].t142083.torrent
Трекер: Зарегистрирован   [ 24.08.2019 22:41 ]  

Статус: проверено (by 90ytr90 at 24.08.2019 23:03)
Поблагодарили: пока никто не поблагодарил...
Тип торрента: публичный - доступные источники с открытых трекеров: 
Размер: 24,84 GB (занимает 5,67 DVDR, для записи нужно 6 болванок DVDR/RW)
 
 
Похожие темы
Форум Тема Автор Торрент Отв. Посл. сооб.
Зарубежное кино [DVDRip, Low-Res HDRip, и т.д.] Годзилла 2: Король монстров / Godzilla: King of the Monsters (Майкл Догерти / Michael Dougherty) [2019 г., фантастика, фэнтези, боевик, приключения, BDRip-AVC] Dub (Rus.iTunes) + Dub (Ukr.iTunes) +... 90ytr90
55 | 4

0 | 264

9

25.08.2019 18:19

Зарубежное кино [DVDRip, Low-Res HDRip, и т.д.] Годзилла 2: Король монстров / Godzilla: King of the Monsters (Майкл Догерти / Michael Dougherty) [2019 г., фантастика, фэнтези, боевик, приключения, BDRip] Dub + Sub (Rus) 90ytr90
126 | 6

0 | 73

2

03.09.2019 12:17

Зарубежное кино [DVDRip, Low-Res HDRip, и т.д.] Годзилла 2: Король монстров / Godzilla: King of the Monsters (Майкл Догерти / Michael Dougherty) [2019 г., фантастика, фэнтези, боевик, приключения, BDRip] Dub + Sub (Rus) 90ytr90
494 | 22

0 | 157

4

03.09.2019 12:18

Зарубежное кино [DVDRip, Low-Res HDRip, и т.д.] Годзилла 2: Король монстров / Godzilla: King of the Monsters (Майкл Догерти / Michael Dougherty) [2019 г., фантастика, фэнтези, боевик, приключения, BDRip-AVC] Dub + MVO (HDRezka Studio) + Original... 90ytr90
59 | 10

0 | 62

2

03.09.2019 13:33

Зарубежное кино [DVDRip, Low-Res HDRip, и т.д.] Годзилла 2: Король монстров / Godzilla: King of the Monsters (Майкл Догерти / Michael Dougherty) [2019 г., фантастика, фэнтези, боевик, приключения, BDRip] Dub + hardsub (Rus) 90ytr90
50 | 3

0 | 69

4

03.09.2019 15:43

Зарубежное кино [DVDRip, Low-Res HDRip, и т.д.] Годзилла 2: Король монстров / Godzilla: King of the Monsters (Майкл Догерти / Michael Dougherty) [2019 г., фантастика, фэнтези, боевик, приключения, BDRip] Dub + hardsub (Rus) 90ytr90
14 | 2

0 | 99

7

03.09.2019 15:47

Зарубежное кино [DVD / HDDVD / BD / Remux] Годзилла 2: Король монстров / Godzilla: King of the Monsters ( Майкл Догерти) [2019,Фантастика, фэнтези, боевик, приключения,BluRay 1080p] [iTunes+HDRezka+Ukr+ENG]+[Subs Rus+Ukr+ENG] Nikolai.Baranov
1 | 1

0 | 147

7

20.08.2019 13:44

T Зарубежное кино [HDDVDRip / BDRip / WEB-DL / HDTV 1080/720р] Годзилла 2: Король монстров / Godzilla: King of the Monsters (Майкл Догерти / Michael Dougherty) [2019 г., фантастика, фэнтези, боевик, приключения, WEBRip 1080p] MVO (HDRezka Studio) + Original... 90ytr90
716 | 4

0 | 380

50

01.08.2019 19:42

T Зарубежное кино [HDDVDRip / BDRip / WEB-DL / HDTV 1080/720р] Годзилла 2: Король монстров / Godzilla: King of the Monsters ( Майкл Догерти) [2019,Фантастика, фэнтези, боевик, приключения,WEB-DLRip 1080p] [HDRezka+Ukr+ENG]+[Subs ENG] Nikolai.Baranov
5 | 1

0 | 291

27

05.08.2019 09:54

Зарубежное кино [HDDVDRip / BDRip / WEB-DL / HDTV 1080/720р] Годзилла 2: Король монстров / Godzilla: King of the Monsters (Майкл Догерти) [2019 г., фантастика, фэнтези, боевик, приключения, WEB-DL 720p] Dub (iTunes) + Sub makkol
87 | 0

0 | 199

6

13.08.2019 20:42


Яндекс.Метрика powered by Sphinx


В Н И М А Н И Е
Сайт не распространяет и не хранит электронные версии произведений, а лишь бесплатно и без коммерческой выгоды (не требуя взамен платы,
SMS и т.д.) предоставляет доступ к создаваемому пользователями каталогу ссылок на торрент-файлы, которые содержат только списки хеш-сумм.
Убедительная просьба с жалобами обращаться напрямую к пользователю, разместившему торрент файл.

Вверх