Loading...
Error

(Progressive Rock) A.C.T - Rebirth (2019) [FLAC (Image+.Cue), Lossless]

Статистика раздачи
Размер:  440 MB   |    Зарегистрирован:  14 дней   |    Скачан:  1 раз

Полного источника не было: 16 часов

Сидов:  0  |  0 KB/s  ]   Личеров:  0  |  0 KB/s  ]

* - сиды/пиры с внешних источников

   
 
Автор Сообщение

Бишеп Пол:Муж

09-Окт-2019 14:00

A.C.T - Rebirth

Жанр: Progressive Rock
Год выпуска: 2019
Носитель: CD
Производитель диска: Avalon - MICP-11499
Аудиокодек: FLAC
Тип рипа: Image+.CUE
Битрейт аудио: lossless
Продолжительность: 00:57:13


Треклист:
01. The Ruler of the World (5:26)
02. Running Out of Luck (3:28)
03. Digital Affair (4:12)
04. Meet the Past (3:56)
05. A Broken Trust (5:13)
Bonus Tracks (Live):
06. Mr.Landlord (4:55)
07. Everything's Falling (4:20)
08. Abandoned World (4:00)
09. The Wandering (6:51)
10. Waltz With Mother Nature (7:03)
11. Take It Easy (3:11)
12. A Supposed Tour (4:38)

 Exact Audio Copy V1.3 from 2. September 2016 

Отчёт EAC об извлечении, выполненном 5. сентября 2019, 14:50

A.C.T / Rebirth

Дисковод: ASUS DRW-24B3ST Adapter: 1 ID: 0

Режим чтения : Достоверность
Использование точного потока : Да
Отключение кэша аудио : Да
Использование указателей C2 : Нет

Коррекция смещения при чтении : 6
Способность читать области Lead-in и Lead-out : Нет
Заполнение пропущенных сэмплов тишиной : Да
Удаление блоков с тишиной в начале и конце : Нет
При вычислениях CRC использовались нулевые сэмплы : Да
Интерфейс : Встроенный Win32-интерфейс для Win NT/2000

Выходной формат : Пользовательский кодировщик
Выбранный битрейт : 1024 kBit/s
Качество : Высокий
Добавление ID3-тега : Нет
Утилита сжатия : C:\Program Files (x86)\Exact Audio Copy\Flac\flac.exe
Дополнительные параметры : -V -8 -T "Date=%year%" -T "Genre=%genre%" %source%

TOC извлечённого CD

Трек | Старт | Длительность | Начальный сектор | Конечный сектор
---------------------------------------------------------------------
1 | 0:00.00 | 5:26.02 | 0 | 24451
2 | 5:26.02 | 3:28.33 | 24452 | 40084
3 | 8:54.35 | 4:11.46 | 40085 | 58955
4 | 13:06.06 | 3:55.59 | 58956 | 76639
5 | 17:01.65 | 5:13.14 | 76640 | 100128
6 | 22:15.04 | 4:54.49 | 100129 | 122227
7 | 27:09.53 | 4:19.57 | 122228 | 141709
8 | 31:29.35 | 4:00.08 | 141710 | 159717
9 | 35:29.43 | 6:51.04 | 159718 | 190546
10 | 42:20.47 | 7:03.27 | 190547 | 222298
11 | 49:23.74 | 3:10.38 | 222299 | 236586
12 | 52:34.37 | 4:38.01 | 236587 | 257437

Характеристики диапазона извлечения и сообщения об ошибках

Выбранный диапазон

Имя файла E:\Torrents-seed\A.C.T - 2019 - Rebirth\A.C.T - Rebirth.wav

Пиковый уровень 99.2 %
Скорость извлечения 9.2 X
Качество диапазона 100.0 %
CRC теста 105A0177
CRC копии 105A0177
Копирование... OK

Ошибок не произошло

AccurateRip: сводка
Трек 1 отсутствует в базе данных
Трек 2 отсутствует в базе данных
Трек 3 отсутствует в базе данных
Трек 4 отсутствует в базе данных
Трек 5 отсутствует в базе данных
Трек 6 отсутствует в базе данных
Трек 7 отсутствует в базе данных
Трек 8 отсутствует в базе данных
Трек 9 отсутствует в базе данных
Трек 10 отсутствует в базе данных
Трек 11 отсутствует в базе данных
Трек 12 отсутствует в базе данных
Ни одного трека нет в базе AccurateRip

Конец отчёта

==== Контрольная сумма отчёта 1FCD730EF217A8B69C85FCB6079C63B8848112A097B84C7F6436D64A25F667BA ====
 REM GENRE "Progressive Rock" 
REM DATE 2019
REM DISCID 9F0D680C
REM COMMENT "ExactAudioCopy v1.3"
PERFORMER "A.C.T"
TITLE "Rebirth"
REM COMPOSER ""
FILE "A.C.T - Rebirth.flac" WAVE
TRACK 01 AUDIO
TITLE "The Rules Of The World"
PERFORMER "A.C.T"
REM COMPOSER ""
INDEX 01 00:00:00
TRACK 02 AUDIO
TITLE "Running Out Of Luck"
PERFORMER "A.C.T"
REM COMPOSER ""
INDEX 01 05:26:02
TRACK 03 AUDIO
TITLE "Digital Affair"
PERFORMER "A.C.T"
REM COMPOSER ""
INDEX 01 08:54:35
TRACK 04 AUDIO
TITLE "Meet The Past"
PERFORMER "A.C.T"
REM COMPOSER ""
INDEX 01 13:06:06
TRACK 05 AUDIO
TITLE "A Broken Past"
PERFORMER "A.C.T"
REM COMPOSER ""
INDEX 01 17:01:65
TRACK 06 AUDIO
TITLE "Mr.Landlord"
PERFORMER "A.C.T"
REM COMPOSER ""
INDEX 01 22:15:04
TRACK 07 AUDIO
TITLE "Everything's Falling"
PERFORMER "A.C.T"
REM COMPOSER ""
INDEX 01 27:09:53
TRACK 08 AUDIO
TITLE "Abandoned World"
PERFORMER "A.C.T"
REM COMPOSER ""
INDEX 01 31:29:35
TRACK 09 AUDIO
TITLE "The Wandering"
PERFORMER "A.C.T"
REM COMPOSER ""
INDEX 01 35:29:43
TRACK 10 AUDIO
TITLE "Waltz With Mother Nature"
PERFORMER "A.C.T"
REM COMPOSER ""
INDEX 01 42:20:47
TRACK 11 AUDIO
TITLE "Take It Easy"
PERFORMER "A.C.T"
REM COMPOSER ""
INDEX 01 49:23:74
TRACK 12 AUDIO
TITLE "A Supposed Tour"
PERFORMER "A.C.T"
REM COMPOSER ""
INDEX 01 52:34:37

Этот торрент недоступен для скачивания без регистрации, однако доступен по публичной magnet-ссылке (источники с публичных трекеров). Перед использованием ссылки прочтите, пожалуйста Пользовательское соглашение, а также как можно дольше оставайтесь на раздаче! Для того, чтобы скачать сам торрент-файл (который видит больше источников), а также для того, чтобы поблагодарить релизера, вам необходимо зарегистрироваться. Если регистрироваться лень - вы можете также попробовать скачать релиз по нашим партнерским ссылкам ниже. Кроме того, зарегистрированным пользователям не показывается всплывающая реклама при скачивании.

[underver.se].t146486.torrent
Трекер: Зарегистрирован   [ 09.10.2019 14:00 ]  

Статус: проверено (by Бишеп at 09.10.2019 14:01)
Поблагодарили: пока никто не поблагодарил...
Тип торрента: публичный - доступные источники с открытых трекеров: 
Размер: 440 MB (занимает 0,1 DVDR, для записи нужно 1 болванка DVDR/RW)
 
 
Похожие темы
Форум Тема Автор Торрент Отв. Посл. сооб.
Зарубежный Hard, Progressive, Soft, Melodic, AOR, Folk, Classic Rock (Progressive Rock) Pink Floyd - Echoes: The Best of Pink Floyd (2001) [iTunes AAC M4A, 256 kbps VBR] Web garry
1 | 0

1 | 5482

9

18.06.2009 21:26

Зарубежный Hard, Progressive, Soft, Melodic, AOR, Folk, Classic Rock (Progressive Rock) Liquid Blue Thursdays - Redacted Essays From Nowhere (2017) [MP3, 320 kbps CBR] Darkferse
1 | 0

0 | 1178

7

04.04.2017 15:21

Зарубежный Hard, Progressive, Soft, Melodic, AOR, Folk, Classic Rock (Progressive Rock) Family Free Rock - In Full Swing (2017) [MP3, 320 kbps CBR] Darkferse
5 | 0

0 | 969

3

05.06.2017 09:20

Зарубежный Hard, Progressive, Soft, Melodic, AOR, Folk, Classic Rock (Progressive, Art-Rock) VA - The Many Faces of Pink Floyd: A Journey Through The Inner World of Pink Floyd (2013) (3CD) [MP3, 320 kbps CBR] saw444
3 | 0

3 | 2184

30

29.12.2013 06:14

Зарубежный Hard, Progressive, Soft, Melodic, AOR, Folk, Classic Rock (Progressive Rock) Asia - Gravitas [Deluxe Edition] (2014) [MP3 (tracks), 320 kbps] Jimmy
0 | 0

0 | 2458

21

22.03.2014 17:23

Зарубежный Hard, Progressive, Soft, Melodic, AOR, Folk, Classic Rock (Progressive Rock) Akrasy - Tsunami: Love (2016) [MP3, 320 kbps CBR] Darkferse
2 | 0

0 | 1238

4

11.12.2016 14:19

Зарубежный Hard, Progressive, Soft, Melodic, AOR, Folk, Classic Rock (Progressive Rock, Hard Rock) Chris Brockbank's Phantom MkV - Phantom (2017) [MP3, 320 kbps CBR] Darkferse
3 | 0

0 | 1017

3

05.06.2017 09:17

Зарубежный Hard, Progressive, Soft, Melodic, AOR, Folk, Classic Rock (Progressive Rock) Elephant Plaza - Momentum (2016) [MP3, 320 kbps CBR] IronMan
0 | 1

0 | 1382

4

26.06.2016 17:08

Зарубежный Hard, Progressive, Soft, Melodic, AOR, Folk, Classic Rock (Progressive Rock) The Watch - Seven (2017) [MP3, 320 kbps CBR] Darkferse
0 | 0

0 | 1426

4

29.05.2017 18:50

Зарубежный Hard, Progressive, Soft, Melodic, AOR, Folk, Classic Rock (Progressive Rock, Stoner Rock) Brieg Guerveno - Valgori (2016) [MP3, 320 kbps CBR] Darkferse
2 | 1

0 | 1164

2

09.01.2017 09:41


Яндекс.Метрика powered by Sphinx


В Н И М А Н И Е
Сайт не распространяет и не хранит электронные версии произведений, а лишь бесплатно и без коммерческой выгоды (не требуя взамен платы,
SMS и т.д.) предоставляет доступ к создаваемому пользователями каталогу ссылок на торрент-файлы, которые содержат только списки хеш-сумм.
Убедительная просьба с жалобами обращаться напрямую к пользователю, разместившему торрент файл.

Вверх