Loading...
Error

(Synthpop, Downtempo) Laid Back - Healing Feeling (2019) [FLAC (Tracks+.Cue), Lossless]

Статистика раздачи
Размер:  263 MB   |    Зарегистрирован:  14 дней   |    Скачан:  10 раз
Сидов:  2  |  0 KB/s  ]   Личеров:  0  |  0 KB/s  ]

* - сиды/пиры с внешних источников

   
 
Автор Сообщение

Бишеп Пол:Муж

09-Окт-2019 14:38

Laid Back - Healing Feeling

Жанр: Synthpop, Downtempo
Год выпуска: 2019
Носитель: CD
Производитель диска: Brother Music - BMCD009
Аудиокодек: FLAC
Тип рипа: Tracks+.CUE
Битрейт аудио: lossless
Продолжительность: 00:44:14


Треклист:
01. Give It Free (00:03:46)
02. Keep On Loving (00:03:29)
03. Love Is A Flower (00:03:47)
04. Walk With The Dreamers (00:04:18)
05. Healing Feeling (00:03:28)
06. Enjoy The Vibes (00:04:12)
07. Number One (00:04:11)
08. Next Life (00:02:54)
09. Deep Inside Your Mind (00:04:14)
10. I'm The Shy Guy (00:04:18)
11. House Of The Rising Sun (00:05:37)

 Exact Audio Copy V1.3 from 2. September 2016 

EAC extraction logfile from 5. September 2019, 20:18

Laid Back / Healing Feeling

Used drive : PLEXTOR PX-891SAF PLUS Adapter: 1 ID: 0

Read mode : Secure
Utilize accurate stream : Yes
Defeat audio cache : Yes
Make use of C2 pointers : No

Read offset correction : 6
Overread into Lead-In and Lead-Out : No
Fill up missing offset samples with silence : Yes
Delete leading and trailing silent blocks : No
Null samples used in CRC calculations : Yes
Used interface : Native Win32 interface for Win NT & 2000
Gap handling : Appended to previous track

Used output format : User Defined Encoder
Selected bitrate : 1024 kBit/s
Quality : High
Add ID3 tag : No
Command line compressor : C:\Program Files (x86)\Exact Audio Copy\Flac\flac.exe
Additional command line options : -0 -V -T "ARTIST=%artist%" -T "TITLE=%title%" -T "ALBUM=%albumtitle%" -T "DATE=%year%" -T "TRACKNUMBER=%tracknr%" -T "TOTALTRACKS=%numtracks%" -T "GENRE=%genre%" -T "COMMENT=Naftamusic Release!" %source%

TOC of the extracted CD

Track | Start | Length | Start sector | End sector
---------------------------------------------------------
1 | 0:00.00 | 3:45.53 | 0 | 16927
2 | 3:45.53 | 3:29.11 | 16928 | 32613
3 | 7:14.64 | 3:46.53 | 32614 | 49616
4 | 11:01.42 | 4:18.14 | 49617 | 68980
5 | 15:19.56 | 3:28.09 | 68981 | 84589
6 | 18:47.65 | 4:11.55 | 84590 | 103469
7 | 22:59.45 | 4:10.53 | 103470 | 122272
8 | 27:10.23 | 2:54.37 | 122273 | 135359
9 | 30:04.60 | 4:13.62 | 135360 | 154396
10 | 34:18.47 | 4:17.69 | 154397 | 173740
11 | 38:36.41 | 5:37.09 | 173741 | 199024

Track 1

Filename E:\Nafta Releases\Laid Back - Healing Feeling (2019)[FLAC] - Naftamusic\01 - Give It Free.wav

Pre-gap length 0:00:02.00

Peak level 89.1 %
Extraction speed 2.6 X
Track quality 100.0 %
Test CRC 9065F3DC
Copy CRC 9065F3DC
Track not present in AccurateRip database
Copy OK

Track 2

Filename E:\Nafta Releases\Laid Back - Healing Feeling (2019)[FLAC] - Naftamusic\02 - Keep On Loving.wav

Pre-gap length 0:00:01.51

Peak level 99.9 %
Extraction speed 2.2 X
Track quality 99.9 %
Test CRC 7BB5CA8B
Copy CRC 7BB5CA8B
Track not present in AccurateRip database
Copy OK

Track 3

Filename E:\Nafta Releases\Laid Back - Healing Feeling (2019)[FLAC] - Naftamusic\03 - Love Is A Flower.wav

Pre-gap length 0:00:02.16

Peak level 99.9 %
Extraction speed 2.5 X
Track quality 99.9 %
Test CRC 4BFE1333
Copy CRC 4BFE1333
Track not present in AccurateRip database
Copy OK

Track 4

Filename E:\Nafta Releases\Laid Back - Healing Feeling (2019)[FLAC] - Naftamusic\04 - Walk With The Dreamers.wav

Pre-gap length 0:00:02.14

Peak level 99.9 %
Extraction speed 3.4 X
Track quality 100.0 %
Test CRC 188AEC0D
Copy CRC 188AEC0D
Track not present in AccurateRip database
Copy OK

Track 5

Filename E:\Nafta Releases\Laid Back - Healing Feeling (2019)[FLAC] - Naftamusic\05 - Healing Feeling.wav

Peak level 99.9 %
Extraction speed 2.7 X
Track quality 99.9 %
Test CRC B0EB3A4C
Copy CRC B0EB3A4C
Track not present in AccurateRip database
Copy OK

Track 6

Filename E:\Nafta Releases\Laid Back - Healing Feeling (2019)[FLAC] - Naftamusic\06 - Enjoy The Vibes.wav

Pre-gap length 0:00:01.64

Peak level 99.9 %
Extraction speed 3.8 X
Track quality 100.0 %
Test CRC 79FF8119
Copy CRC 79FF8119
Track not present in AccurateRip database
Copy OK

Track 7

Filename E:\Nafta Releases\Laid Back - Healing Feeling (2019)[FLAC] - Naftamusic\07 - Number One.wav

Pre-gap length 0:00:02.14

Peak level 99.9 %
Extraction speed 4.1 X
Track quality 100.0 %
Test CRC 2297A553
Copy CRC 2297A553
Track not present in AccurateRip database
Copy OK

Track 8

Filename E:\Nafta Releases\Laid Back - Healing Feeling (2019)[FLAC] - Naftamusic\08 - Next Life.wav

Peak level 99.9 %
Extraction speed 4.0 X
Track quality 100.0 %
Test CRC 8C146AC5
Copy CRC 8C146AC5
Track not present in AccurateRip database
Copy OK

Track 9

Filename E:\Nafta Releases\Laid Back - Healing Feeling (2019)[FLAC] - Naftamusic\09 - Deep Inside Your Mind.wav

Peak level 99.9 %
Extraction speed 4.4 X
Track quality 100.0 %
Test CRC 768332D1
Copy CRC 768332D1
Track not present in AccurateRip database
Copy OK

Track 10

Filename E:\Nafta Releases\Laid Back - Healing Feeling (2019)[FLAC] - Naftamusic\10 - I'm The Shy Guy.wav

Pre-gap length 0:00:02.14

Peak level 99.9 %
Extraction speed 4.6 X
Track quality 100.0 %
Test CRC 911FF27D
Copy CRC 911FF27D
Track not present in AccurateRip database
Copy OK

Track 11

Filename E:\Nafta Releases\Laid Back - Healing Feeling (2019)[FLAC] - Naftamusic\11 - House Of The Rising Sun.wav

Pre-gap length 0:00:02.10

Peak level 99.9 %
Extraction speed 4.9 X
Track quality 100.0 %
Test CRC E0AF4EF3
Copy CRC E0AF4EF3
Track not present in AccurateRip database
Copy OK

None of the tracks are present in the AccurateRip database

No errors occurred

End of status report

==== Log checksum 592C263F98BA08C9B051EC8D28CF8F4FFD86D2A0E6C4B8CED2EE136E46BA3648 ====
 REM GENRE Pop 
REM DATE 2019
REM DISCID 800A5D0B
REM COMMENT "ExactAudioCopy v1.3"
PERFORMER "Laid Back"
TITLE "Healing Feeling"
REM COMPOSER ""
FILE "01 - Give It Free.wav" WAVE
TRACK 01 AUDIO
TITLE "Give It Free"
PERFORMER "Laid Back"
REM COMPOSER ""
INDEX 01 00:00:00
TRACK 02 AUDIO
TITLE "Keep On Loving"
PERFORMER "Laid Back"
REM COMPOSER ""
INDEX 00 03:44:02
FILE "02 - Keep On Loving.wav" WAVE
INDEX 01 00:00:00
TRACK 03 AUDIO
TITLE "Love Is A Flower"
PERFORMER "Laid Back"
REM COMPOSER ""
INDEX 00 03:26:70
FILE "03 - Love Is A Flower.wav" WAVE
INDEX 01 00:00:00
TRACK 04 AUDIO
TITLE "Walk With The Dreamers"
PERFORMER "Laid Back"
REM COMPOSER ""
INDEX 00 03:44:39
FILE "04 - Walk With The Dreamers.wav" WAVE
INDEX 01 00:00:00
FILE "05 - Healing Feeling.wav" WAVE
TRACK 05 AUDIO
TITLE "Healing Feeling"
PERFORMER "Laid Back"
REM COMPOSER ""
INDEX 01 00:00:00
TRACK 06 AUDIO
TITLE "Enjoy The Vibes"
PERFORMER "Laid Back"
REM COMPOSER ""
INDEX 00 03:26:20
FILE "06 - Enjoy The Vibes.wav" WAVE
INDEX 01 00:00:00
TRACK 07 AUDIO
TITLE "Number One"
PERFORMER "Laid Back"
REM COMPOSER ""
INDEX 00 04:09:41
FILE "07 - Number One.wav" WAVE
INDEX 01 00:00:00
FILE "08 - Next Life.wav" WAVE
TRACK 08 AUDIO
TITLE "Next Life"
PERFORMER "Laid Back"
REM COMPOSER ""
INDEX 01 00:00:00
FILE "09 - Deep Inside Your Mind.wav" WAVE
TRACK 09 AUDIO
TITLE "Deep Inside Your Mind"
PERFORMER "Laid Back"
REM COMPOSER ""
INDEX 01 00:00:00
TRACK 10 AUDIO
TITLE "I'm The Shy Guy"
PERFORMER "Laid Back"
REM COMPOSER ""
INDEX 00 04:11:48
FILE "10 - I'm The Shy Guy.wav" WAVE
INDEX 01 00:00:00
TRACK 11 AUDIO
TITLE "House Of The Rising Sun"
PERFORMER "Laid Back"
REM COMPOSER ""
INDEX 00 04:15:59
FILE "11 - House Of The Rising Sun.wav" WAVE
INDEX 01 00:00:00

Этот торрент недоступен для скачивания без регистрации, однако доступен по публичной magnet-ссылке (источники с публичных трекеров). Перед использованием ссылки прочтите, пожалуйста Пользовательское соглашение, а также как можно дольше оставайтесь на раздаче! Для того, чтобы скачать сам торрент-файл (который видит больше источников), а также для того, чтобы поблагодарить релизера, вам необходимо зарегистрироваться. Если регистрироваться лень - вы можете также попробовать скачать релиз по нашим партнерским ссылкам ниже. Кроме того, зарегистрированным пользователям не показывается всплывающая реклама при скачивании.

[underver.se].t146490.torrent
Трекер: Зарегистрирован   [ 09.10.2019 14:38 ]  

Статус: проверено (by Бишеп at 09.10.2019 14:38)
Поблагодарили: 2 человека
Тип торрента: публичный - доступные источники с открытых трекеров: 
Размер: 263 MB (занимает 0,06 DVDR, для записи нужно 1 болванка DVDR/RW)
 
 
Похожие темы
Форум Тема Автор Торрент Отв. Посл. сооб.
Зарубежная Pop Музыка (SynthPop, New Wave) Howard Jones - Celebration (30th Anniversary) (2013) [MP3, 320 kbps] 90ytr90
2 | 0

0 | 1209

5

11.11.2016 16:24

Зарубежная Pop Музыка (Synthpop, Italo Disco) Italoconnection - Metropoli (2CD Expanded Edition) (2018) [MP3, 320 kbps CBR] 90ytr90
0 | 1

0 | 768

6

01.01.2019 08:30

Сборники Pop, Disco, Dance (Synthpop, Euro-Disco) VA - Go East (Axel Breitung, Silent Circle) - Strangers From The Light (2018) [MP3, 192 kbps CBR] Magnat
2 | 0

0 | 143

4

01.06.2019 19:35

Electro, Breakbeat, Dubstep (Synthpop, Chillwave, Downtempo) Jai Wolf - The Cure To Loneliness (2019) [MP3, 320 kbps CBR] Magnat
11 | 1

0 | 176

1

05.06.2019 17:36

EBM, Industrial, Dark Electro, Darkwave, Gothic Synth (Synthpop, EBM) Binary Park - Nothing (EP) (2016) [MP3, 320 kbps CBR] ANDRAKO
5 | 0

1 | 945

3

04.11.2016 16:07

EBM, Industrial, Dark Electro, Darkwave, Gothic Synth (Synthpop, Darkwave) The Frozen Autumn - The Fellow Traveller (2017) [MP3, 320 kbps CBR] Darkferse
6 | 1

0 | 1042

7

21.12.2017 20:38

Synthpop, Futurepop, Electropop, Spacesynth (Synthpop, Electronic) Starchild & The New Romantic - Crucial (2016) [MP3, 320 kbps] ANDRAKO
2 | 0

0 | 1031

2

27.12.2016 18:05

Synthpop, Futurepop, Electropop, Spacesynth (Synthpop, Indietronic) Boys Of Scandinavia - Psychomachia (2016) [MP3, 320 kbps] ANDRAKO
0 | 0

0 | 855

3

05.12.2016 19:00

Synthpop, Futurepop, Electropop, Spacesynth (Synthpop, Electronic) Pet Shop Boys - The Pop Kids (Remixes) (2016) [MP3, 320 kbps] ANDRAKO
2 | 0

0 | 898

4

05.12.2016 18:45

Synthpop, Futurepop, Electropop, Spacesynth (Synthpop, New Beat, Techno) Voyou - Houseman / Germany Calling (2017) [MP3, 320 kbps CBR] Darkferse
1 | 1

0 | 1054

3

15.05.2017 20:29


Яндекс.Метрика powered by Sphinx


В Н И М А Н И Е
Сайт не распространяет и не хранит электронные версии произведений, а лишь бесплатно и без коммерческой выгоды (не требуя взамен платы,
SMS и т.д.) предоставляет доступ к создаваемому пользователями каталогу ссылок на торрент-файлы, которые содержат только списки хеш-сумм.
Убедительная просьба с жалобами обращаться напрямую к пользователю, разместившему торрент файл.

Вверх