Loading...
Error

(Indie Rock, Punk Rock) Sleater-Kinney - The Center Won’t Hold (2019) [FLAC (Tracks+.Cue), Lossless]

Статистика раздачи
Размер:  237 MB   |    Зарегистрирован:  14 дней   |    Скачан:  0 раз

Полного источника не было: Никогда

Сидов:  0  |  0 KB/s  ]   Личеров:  0  |  0 KB/s  ]

* - сиды/пиры с внешних источников

   
 
Автор Сообщение

Бишеп Пол:Муж

09-Окт-2019 14:46

Sleater-Kinney - The Center Won’t Hold

Жанр: Indie Rock, Punk Rock
Год выпуска: 2019
Носитель: CD
Производитель диска: Mom + Pop - MP431
Аудиокодек: FLAC
Тип рипа: Tracks+.CUE
Битрейт аудио: lossless
Продолжительность: 00:36:16


Треклист:
01. The Center Won't Hold (03:04)
02. Hurry On Home (02:48)
03. Reach Out (03:30)
04. Can I Go On (03:30)
05. Restless (02:41)
06. RUINS (05:18)
07. LOVE (02:16)
08. Bad Dance (02:45)
09. The Future Is Here (03:00)
10. The Dog / The Body (04:22)
11. Broken (03:02)

 Exact Audio Copy V1.3 from 2. September 2016 

EAC extraction logfile from 6. September 2019, 0:20

Sleater‐Kinney / The Center Won’t Hold

Used drive : MATSHITADVD-RAM UJ8E2 Adapter: 1 ID: 0

Read mode : Secure
Utilize accurate stream : Yes
Defeat audio cache : Yes
Make use of C2 pointers : No

Read offset correction : 103
Overread into Lead-In and Lead-Out : No
Fill up missing offset samples with silence : Yes
Delete leading and trailing silent blocks : No
Null samples used in CRC calculations : Yes
Used interface : Native Win32 interface for Win NT & 2000
Gap handling : Appended to previous track

Used output format : User Defined Encoder
Selected bitrate : 1024 kBit/s
Quality : High
Add ID3 tag : No
Command line compressor : C:\Program Files (x86)\Exact Audio Copy\Flac\flac.exe
Additional command line options : -8 -V -T "ARTIST=%artist%" -T "TITLE=%title%" -T "ALBUM=%albumtitle%" -T "DATE=%year%" -T "TRACKNUMBER=%tracknr%" -T "GENRE=%genre%" -T "PERFORMER=%albuminterpret%" -T "COMPOSER=%composer%" %haslyrics%--tag-from-file=LYRICS="%lyricsfile%"%haslyrics% -T "ALBUMARTIST=%albumartist%" -T "DISCNUMBER=%cdnumber%" -T "TOTALDISCS=%totalcds%" -T "TOTALTRACKS=%numtracks%" -T "COMMENT=%comment%" %source% -o %dest%

TOC of the extracted CD

Track | Start | Length | Start sector | End sector
---------------------------------------------------------
1 | 0:00.00 | 3:04.24 | 0 | 13823
2 | 3:04.24 | 2:48.16 | 13824 | 26439
3 | 5:52.40 | 3:30.31 | 26440 | 42220
4 | 9:22.71 | 3:30.71 | 42221 | 58041
5 | 12:53.67 | 2:41.55 | 58042 | 70171
6 | 15:35.47 | 5:18.01 | 70172 | 94022
7 | 20:53.48 | 2:16.25 | 94023 | 104247
8 | 23:09.73 | 2:45.11 | 104248 | 116633
9 | 25:55.09 | 3:00.24 | 116634 | 130157
10 | 28:55.33 | 4:22.21 | 130158 | 149828
11 | 33:17.54 | 3:02.43 | 149829 | 163521

Track 1

Filename C:\EAC Rips\Sleater‐Kinney (2019) The Center Won’t Hold [FLAC] {MP431}\ 01 - The Center Won’t Hold.wav

Pre-gap length 0:00:02.00

Peak level 99.8 %
Extraction speed 2.3 X
Track quality 100.0 %
Test CRC 8F66327B
Copy CRC 8F66327B
Track not present in AccurateRip database
Copy OK

Track 2

Filename C:\EAC Rips\Sleater‐Kinney (2019) The Center Won’t Hold [FLAC] {MP431}\ 02 - Hurry On Home.wav

Peak level 99.8 %
Extraction speed 2.4 X
Track quality 100.0 %
Test CRC 2F94A233
Copy CRC 2F94A233
Track not present in AccurateRip database
Copy OK

Track 3

Filename C:\EAC Rips\Sleater‐Kinney (2019) The Center Won’t Hold [FLAC] {MP431}\ 03 - Reach Out.wav

Peak level 99.8 %
Extraction speed 2.7 X
Track quality 100.0 %
Test CRC 015BE593
Copy CRC 015BE593
Track not present in AccurateRip database
Copy OK

Track 4

Filename C:\EAC Rips\Sleater‐Kinney (2019) The Center Won’t Hold [FLAC] {MP431}\ 04 - Can I Go On.wav

Peak level 99.8 %
Extraction speed 2.9 X
Track quality 100.0 %
Test CRC 64D124F2
Copy CRC 64D124F2
Track not present in AccurateRip database
Copy OK

Track 5

Filename C:\EAC Rips\Sleater‐Kinney (2019) The Center Won’t Hold [FLAC] {MP431}\ 05 - Restless.wav

Peak level 99.8 %
Extraction speed 3.0 X
Track quality 100.0 %
Test CRC AE409516
Copy CRC AE409516
Track not present in AccurateRip database
Copy OK

Track 6

Filename C:\EAC Rips\Sleater‐Kinney (2019) The Center Won’t Hold [FLAC] {MP431}\ 06 - Ruins.wav

Peak level 99.8 %
Extraction speed 3.5 X
Track quality 100.0 %
Test CRC 5084E8FF
Copy CRC 5084E8FF
Track not present in AccurateRip database
Copy OK

Track 7

Filename C:\EAC Rips\Sleater‐Kinney (2019) The Center Won’t Hold [FLAC] {MP431}\ 07 - Love.wav

Peak level 99.8 %
Extraction speed 3.2 X
Track quality 100.0 %
Test CRC 4FCF238F
Copy CRC 4FCF238F
Track not present in AccurateRip database
Copy OK

Track 8

Filename C:\EAC Rips\Sleater‐Kinney (2019) The Center Won’t Hold [FLAC] {MP431}\ 08 - Bad Dance.wav

Peak level 99.8 %
Extraction speed 3.4 X
Track quality 100.0 %
Test CRC F3D8BBFA
Copy CRC F3D8BBFA
Track not present in AccurateRip database
Copy OK

Track 9

Filename C:\EAC Rips\Sleater‐Kinney (2019) The Center Won’t Hold [FLAC] {MP431}\ 09 - The Future Is Here.wav

Peak level 99.8 %
Extraction speed 3.7 X
Track quality 100.0 %
Test CRC E6FA47C0
Copy CRC E6FA47C0
Track not present in AccurateRip database
Copy OK

Track 10

Filename C:\EAC Rips\Sleater‐Kinney (2019) The Center Won’t Hold [FLAC] {MP431}\ 10 - The Dog,The Body.wav

Peak level 99.8 %
Extraction speed 3.0 X
Track quality 99.9 %
Test CRC DCE3EBC1
Copy CRC DCE3EBC1
Track not present in AccurateRip database
Copy OK

Track 11

Filename C:\EAC Rips\Sleater‐Kinney (2019) The Center Won’t Hold [FLAC] {MP431}\ 11 - Broken.wav

Peak level 99.8 %
Extraction speed 2.8 X
Track quality 99.9 %
Test CRC 6407CDB7
Copy CRC 6407CDB7
Track not present in AccurateRip database
Copy OK

None of the tracks are present in the AccurateRip database

No errors occurred

End of status report

---- CUETools DB Plugin V2.1.6

[CTDB TOCID: MUONSgKmYmWIPXOjSX8wrXvHVx0-] found
Submit result: MUONSgKmYmWIPXOjSX8wrXvHVx0- has been confirmed
Track | CTDB Status
1 | (66/66) Accurately ripped
2 | (66/66) Accurately ripped
3 | (66/66) Accurately ripped
4 | (66/66) Accurately ripped
5 | (66/66) Accurately ripped
6 | (66/66) Accurately ripped
7 | (66/66) Accurately ripped
8 | (66/66) Accurately ripped
9 | (66/66) Accurately ripped
10 | (66/66) Accurately ripped
11 | (66/66) Accurately ripped

==== Log checksum 89A99EC5EF4DDA1BE3E9BFA4C6E2564CEBE606E5908CF2AC6DFD39F9A33743F3 ====
 REM GENRE "Alt. Rock" 
REM DATE 2019
REM DISCID AD08840B
REM COMMENT "ExactAudioCopy v1.3"
CATALOG 0858275056426
PERFORMER "Sleater-Kinney"
TITLE "The Center Won’t Hold"
REM COMPOSER ""
FILE "01 - The Center Won’t Hold.wav" WAVE
TRACK 01 AUDIO
TITLE "The Center Won’t Hold"
PERFORMER "Sleater-Kinney"
REM COMPOSER ""
ISRC USQE91500893
INDEX 01 00:00:00
FILE "02 - Hurry On Home.wav" WAVE
TRACK 02 AUDIO
TITLE "Hurry On Home"
PERFORMER "Sleater-Kinney"
REM COMPOSER ""
ISRC USQE91500894
INDEX 01 00:00:00
FILE "03 - Reach Out.wav" WAVE
TRACK 03 AUDIO
TITLE "Reach Out"
PERFORMER "Sleater-Kinney"
REM COMPOSER ""
ISRC USQE91500896
INDEX 01 00:00:00
FILE "04 - Can I Go On.wav" WAVE
TRACK 04 AUDIO
TITLE "Can I Go On"
PERFORMER "Sleater-Kinney"
REM COMPOSER ""
ISRC USQE91500895
INDEX 01 00:00:00
FILE "05 - Restless.wav" WAVE
TRACK 05 AUDIO
TITLE "Restless"
PERFORMER "Sleater-Kinney"
REM COMPOSER ""
ISRC USQE91500897
INDEX 01 00:00:00
FILE "06 - Ruins.wav" WAVE
TRACK 06 AUDIO
TITLE "Ruins"
PERFORMER "Sleater-Kinney"
REM COMPOSER ""
ISRC USQE91500898
INDEX 01 00:00:00
FILE "07 - Love.wav" WAVE
TRACK 07 AUDIO
TITLE "Love"
PERFORMER "Sleater-Kinney"
REM COMPOSER ""
ISRC USQE91500899
INDEX 01 00:00:00
FILE "08 - Bad Dance.wav" WAVE
TRACK 08 AUDIO
TITLE "Bad Dance"
PERFORMER "Sleater-Kinney"
REM COMPOSER ""
ISRC USQE91500900
INDEX 01 00:00:00
FILE "09 - The Future Is Here.wav" WAVE
TRACK 09 AUDIO
TITLE "The Future Is Here"
PERFORMER "Sleater-Kinney"
REM COMPOSER ""
ISRC USQE91500901
INDEX 01 00:00:00
FILE "10 - The Dog,The Body.wav" WAVE
TRACK 10 AUDIO
TITLE "The Dog/The Body"
PERFORMER "Sleater-Kinney"
REM COMPOSER ""
ISRC USQE91500902
INDEX 01 00:00:00
FILE "11 - Broken.wav" WAVE
TRACK 11 AUDIO
TITLE "Broken"
PERFORMER "Sleater-Kinney"
REM COMPOSER ""
ISRC USQE91500903
INDEX 01 00:00:00

Этот торрент недоступен для скачивания без регистрации, однако доступен по публичной magnet-ссылке (источники с публичных трекеров). Перед использованием ссылки прочтите, пожалуйста Пользовательское соглашение, а также как можно дольше оставайтесь на раздаче! Для того, чтобы скачать сам торрент-файл (который видит больше источников), а также для того, чтобы поблагодарить релизера, вам необходимо зарегистрироваться. Если регистрироваться лень - вы можете также попробовать скачать релиз по нашим партнерским ссылкам ниже. Кроме того, зарегистрированным пользователям не показывается всплывающая реклама при скачивании.

[underver.se].t146491.torrent
Трекер: Зарегистрирован   [ 09.10.2019 14:46 ]  

Статус: проверено (by Бишеп at 09.10.2019 14:46)
Поблагодарили: пока никто не поблагодарил...
Тип торрента: публичный - доступные источники с открытых трекеров: 
Размер: 237 MB (занимает 0,05 DVDR, для записи нужно 1 болванка DVDR/RW)
 
 
Похожие темы
Форум Тема Автор Торрент Отв. Посл. сооб.
Зарубежная Pop Музыка (Indie Rock, Art Rock) Baustelle - L'amore e la Violenza (2017) [MP3, 320 kbps] 90ytr90
5 | 0

0 | 1149

2

19.02.2017 08:12

Зарубежный Hard, Progressive, Soft, Melodic, AOR, Folk, Classic Rock (Indie Rock, Jazz Noir, Low Rock) Vapors of Morphine - A New Low (2016) [MP3, 320 kbps] ANDRAKO
3 | 0

0 | 1160

3

26.12.2016 18:28

Зарубежный Hard, Progressive, Soft, Melodic, AOR, Folk, Classic Rock (Indie Rock, Folk Rock) Father John Misty - God's Favorite Customer (2018) [MP3, 320 kbps CBR] 90ytr90
19 | 16

0 | 303

1

03.12.2018 14:07

Зарубежный Hard, Progressive, Soft, Melodic, AOR, Folk, Classic Rock (Indie Rock, Folk) Mick Harvey And Christopher Richard Barker - The Fall And Rise Of Edgar Bourchier And The Horrors Of War (2018) [MP3, 320 kbps CBR] 90ytr90
5 | 0

0 | 348

1

03.12.2018 15:08

Зарубежный Hard, Progressive, Soft, Melodic, AOR, Folk, Classic Rock (Indie Rock, Folk) Willard Grant Conspiracy - Untethered (2018) [MP3, 320 kbps CBR] 90ytr90
2 | 1

0 | 331

2

07.12.2018 16:30

Зарубежный Punk, Hardcore, Grunge, Alternative (Indie Rock, Punk Rock) Sorority Noise - Youre Not As As You Think (2017) [MP3, 320 kbps CBR] Darkferse
5 | 0

0 | 1210

1

17.03.2017 20:02

Отечественный Punk, Grunge, Alternative (Indie Rock) Electric Princesses - No Models (2017) [MP3, 320 kbps CBR] Darkferse
1 | 0

0 | 996

2

15.04.2017 16:41

Отечественный Punk, Grunge, Alternative (Indie Rock, Female Vocalist) SadMe - Reverse (2017) [MP3, 320 kbps CBR] Darkferse
6 | 0

0 | 837

1

12.09.2017 09:49

Experimental, Minimal, 8-bit (Indie Rock, Experimental) Public Service Broadcasting - Every Valley (2017) [MP3, 320 kbps CBR] Darkferse
9 | 1

0 | 1596

2

12.07.2017 11:28

Зарубежный Hard, Progressive, Melodic, AOR (Lossless) (Indie Rock) Friendly Fires - Дискография (2008-2011) [FLAC (Tracks+.CUE), lossless] Jimmy
3 | 1

0 | 2769

1

02.06.2011 18:35


Яндекс.Метрика powered by Sphinx


В Н И М А Н И Е
Сайт не распространяет и не хранит электронные версии произведений, а лишь бесплатно и без коммерческой выгоды (не требуя взамен платы,
SMS и т.д.) предоставляет доступ к создаваемому пользователями каталогу ссылок на торрент-файлы, которые содержат только списки хеш-сумм.
Убедительная просьба с жалобами обращаться напрямую к пользователю, разместившему торрент файл.

Вверх