Loading...
Error

Король Лев / The Lion King (Джон Фавро / Jon Favreau) [2019 г., мультфильм, мюзикл, драма, приключения, семейный, BDRemux 1080p] Dub (iTunes) + Original (Eng) + Sub (Rus, Eng)

Статистика раздачи
Размер:  27,29 GB   |    Зарегистрирован:  4 дня   |    Скачан:  12 раз
Сидов:  1  |  426 KB/s  ]   Личеров:  0  |  0 KB/s  ]

* - сиды/пиры с внешних источников

   
 
Автор Сообщение

90ytr90 

12-Окт-2019 01:58

Король Лев / The Lion King
«The King Has Returned»

Страна: США
Год выпуска: 2019
Жанр: мультфильм, мюзикл, драма, приключения, семейный
Продолжительность: 01:58:14
Озвучивание:
  • профессиональное (полное дублирование) [iTunes]
  • оригинальная звуковая дорожка [английский]

Режиссёр: Джон Фавро / Jon Favreau

Роли озвучивали:
Джеймс Эрл Джонс, Дональд Гловер, Чиветель Эджиофор, Джон Оливер, Джон Кани, Элфри Вудард, Джейдон Маккрэри, Шахади Райт Джозеф, Пенни Джонсон, Кигэн-Майкл Ки


Сюжет фильма:
История об отважном львенке по имени Симба. Знакомые с детства герои взрослеют, влюбляются, познают себя и окружающий мир, совершают ошибки и делают правильный выбор.

  • Дата мировой премьеры: 12 июля 2019
  • Дата российской премьеры: 18 июля 2019, «WDSSPR» 3D
             
Качество видео: BDRemux 1080p
Формат: MKV
Видео: AVC, 1920x1080 (16:9), 27.6 Mbps, 23.976 (24000/1001) fps, 0.554 bit/pixel
Аудио #1: AC3, 384 kbps, 6 ch, 48 kHz, Dub [iTunes]
Аудио #2: DTS-HD MA, 5091 kbps, 8 ch, 48 kHz, Original [English]
Субтитры: Russian (full, SDH), English (full)
Навигация по главам: есть (21)

Сборка: seleZen

Код:

General
Unique ID                   : 286818499455103182816260238633621755945 (0xD7C73BD1D41C7C32B7492E45455B9829)
Complete name               : D:Video111The.Lion.King.2019.BDREMUX.1080p.seleZen.mkv
Format                      : Matroska
Format version              : Version 4
File size                   : 27.3 GiB
Duration                    : 1 h 58 min
Overall bit rate mode       : Variable
Overall bit rate            : 33.0 Mb/s
Movie name                  : The Lion King 2019 from селезень
Encoded date                : UTC 2019-10-11 23:55:45
Writing application         : mkvmerge v22.0.0 ('At The End Of The World') 64-bit
Writing library             : libebml v1.3.5 + libmatroska v1.4.8

Video
ID                          : 1
Format                      : AVC
Format/Info                 : Advanced Video Codec
Format profile              : High@L4.1
Format settings             : CABAC / 4 Ref Frames
Format settings, CABAC      : Yes
Format settings, Reference  : 4 frames
Codec ID                    : V_MPEG4/ISO/AVC
Duration                    : 1 h 58 min
Bit rate mode               : Variable
Bit rate                    : 27.6 Mb/s
Maximum bit rate            : 35.0 Mb/s
Width                       : 1 920 pixels
Height                      : 1 080 pixels
Display aspect ratio        : 16:9
Frame rate mode             : Constant
Frame rate                  : 23.976 (24000/1001) FPS
Color space                 : YUV
Chroma subsampling          : 4:2:0
Bit depth                   : 8 bits
Scan type                   : Progressive
Bits/(Pixel*Frame)          : 0.554
Stream size                 : 22.8 GiB (83%)
Language                    : English
Default                     : Yes
Forced                      : No

Audio #1
ID                          : 2
Format                      : AC-3
Format/Info                 : Audio Coding 3
Commercial name             : Dolby Digital
Codec ID                    : A_AC3
Duration                    : 1 h 58 min
Bit rate mode               : Constant
Bit rate                    : 384 kb/s
Channel(s)                  : 6 channels
Channel layout              : L R C LFE Ls Rs
Sampling rate               : 48.0 kHz
Frame rate                  : 31.250 FPS (1536 SPF)
Bit depth                   : 16 bits
Compression mode            : Lossy
Stream size                 : 325 MiB (1%)
Title                       : iTunes
Language                    : Russian
Service kind                : Complete Main
Default                     : Yes
Forced                      : Yes

Audio #2
ID                          : 3
Format                      : DTS XLL
Format/Info                 : Digital Theater Systems
Commercial name             : DTS-HD Master Audio
Codec ID                    : A_DTS
Duration                    : 1 h 58 min
Bit rate mode               : Variable
Bit rate                    : 5 091 kb/s
Channel(s)                  : 8 channels
Channel layout              : C L R LFE Lb Rb Lss Rss
Sampling rate               : 48.0 kHz
Frame rate                  : 93.750 FPS (512 SPF)
Bit depth                   : 24 bits
Compression mode            : Lossless
Stream size                 : 4.21 GiB (15%)
Title                       : Original
Language                    : English
Default                     : No
Forced                      : No

Text #1
ID                          : 4
Format                      : UTF-8
Codec ID                    : S_TEXT/UTF8
Codec ID/Info               : UTF-8 Plain Text
Duration                    : 1 h 55 min
Bit rate                    : 68 b/s
Count of elements           : 1371
Stream size                 : 58.1 KiB (0%)
Title                       : Full
Language                    : Russian
Default                     : No
Forced                      : No

Text #2
ID                          : 5
Format                      : UTF-8
Codec ID                    : S_TEXT/UTF8
Codec ID/Info               : UTF-8 Plain Text
Duration                    : 1 h 47 min
Bit rate                    : 89 b/s
Count of elements           : 1642
Stream size                 : 70.4 KiB (0%)
Title                       : SDH
Language                    : Russian
Default                     : No
Forced                      : No

Text #3
ID                          : 6
Format                      : UTF-8
Codec ID                    : S_TEXT/UTF8
Codec ID/Info               : UTF-8 Plain Text
Duration                    : 1 h 46 min
Bit rate                    : 50 b/s
Count of elements           : 1369
Stream size                 : 39.1 KiB (0%)
Title                       : Full
Language                    : English
Default                     : No
Forced                      : No

Menu
00:00:00.000                : en:"Circle Of Life/Nants' Ingonyama"
00:04:50.499                : en:"Life's Not Fair"
00:10:51.067                : en:"Everything The Light Touches"
00:17:47.692                : en:"I Just Can't Wait To Be King"
00:23:53.015                : en:Elephant Graveyard
00:30:00.132                : en:Under The Stars
00:33:05.066                : en:"Be Prepared"
00:37:09.310                : en:Stampede
00:43:42.912                : en:Scar Takes Over
00:50:47.336                : en:Timon And Pumbaa
00:55:02.716                : en:"Hakuna Matata"
00:59:48.460                : en:Scar's Kingdom
01:06:27.233                : en:"Line Of Indifference"
01:14:32.093                : en:"The Lion Sleeps Tonight"
01:18:26.410                : en:"Can You Feel The Love Tonight"
01:23:07.900                : en:"He Lives In You"
01:28:04.654                : en:"Spirit"
01:33:10.877                : en:Simba Confronts Scar
01:37:13.745                : en:Battle For Pride Rock
01:44:39.190                : en:The Rightful King
01:47:47.336                : en:End Credits/"Never Too Late"


pic pic pic pic pic

Этот торрент недоступен для скачивания без регистрации, однако доступен по публичной magnet-ссылке (источники с публичных трекеров). Перед использованием ссылки прочтите, пожалуйста Пользовательское соглашение, а также как можно дольше оставайтесь на раздаче! Для того, чтобы скачать сам торрент-файл (который видит больше источников), а также для того, чтобы поблагодарить релизера, вам необходимо зарегистрироваться. Если регистрироваться лень - вы можете также попробовать скачать релиз по нашим партнерским ссылкам ниже. Кроме того, зарегистрированным пользователям не показывается всплывающая реклама при скачивании.

[underver.se].t146908.torrent
Трекер: Зарегистрирован   [ 12.10.2019 01:58 ]  

Статус: проверено (by 90ytr90 at 12.10.2019 04:15)
Поблагодарили: пока никто не поблагодарил...
Тип торрента: публичный - доступные источники с открытых трекеров: 
Размер: 27,29 GB (занимает 6,24 DVDR, для записи нужно 7 болванок DVDR/RW)
 
 
Похожие темы
Форум Тема Автор Торрент Отв. Посл. сооб.
Зарубежные мультфильмы Король Лев / The Lion King (Джон Фавро / Jon Favreau) [2019 г., мультфильм, мюзикл, драма, приключения, семейный, HDRip] Dub (iTunes) + Original (Eng) + Sub (Rus, Eng) eXtatik
445 | 24

0 | 162

28

11.10.2019 06:20

Зарубежные мультфильмы Король Лев / The Lion King (Джон Фавро) [2019 г., мультфильм, мюзикл, драма, приключения, семейный, HDRip-AVC] Dub (iTunes) + Sub (Rus) eXtatik
1122 | 73

0 | 188

14

11.10.2019 06:17

Зарубежные мультфильмы Король Лев / The Lion King (Джон Фавро) [2019 г., мультфильм, мюзикл, драма, приключения, семейный, HDRip] Dub (iTunes) eXtatik
5554 | 271

0 | 165

27

11.10.2019 06:15

Мультфильмы [DVD / HDDVD / BD / Remux] Король Лев / The Lion King (Роджер Аллерс, Роб Минкофф / Roger Allers, Rob Minkoff) [1994, мультфильм, мюзикл, драма, приключения, семейный, Blu-ray disc 1080p] uzi2009
22 | 2

1 | 2477

9

28.11.2014 20:26

Мультфильмы [DVD / HDDVD / BD / Remux] Король Лев / The Lion King ( Джон Фавро) [2019, Мультфильм, мюзикл, драма, приключения, семейный, ремейк,BluRay 1080р] [iTunes,Rus+ENG]+[Subs Rus+ENG] Nikolai.Baranov
1 | 0

0 | 80

5

13.10.2019 07:09

Мультфильмы [DVD / HDDVD / BD / Remux] Король Лев / The Lion King ( Джон Фавро) [2019, Мультфильм, мюзикл, драма, приключения, семейный, ремейк,BluRay 1080р] [iTunes,Rus+ENG]+[Subs Rus+ENG] Nikolai.Baranov
0 | 3

0 | 128

3

13.10.2019 14:55

Мультфильмы [HDDVDRip / BDRip / WEB-DL / HDTV 1080/720р] Король Лев (Роджер Эллерс, Роб Минкофф) [1994 г., анимация, приключения, семейный, HDTV-Rip 720p] Saggitarius
3 | 0

1 | 2941

90

26.07.2009 17:47

T Мультфильмы [HDDVDRip / BDRip / WEB-DL / HDTV 1080/720р] Король Лев / The Lion King (Джон Фавро) [2019 г., мультфильм, мюзикл, драма, приключения, семейный, WEB-DL 1080p] Dub (iTunes) + Original (Eng) + Sub (Rus, Eng) eXtatik
2996 | 113

0 | 153

16

10.10.2019 19:51

Мультфильмы [HDDVDRip / BDRip / WEB-DL / HDTV 1080/720р] Король Лев / The Lion King (Джон Фавро) [2019 г., мультфильм, мюзикл, драма, приключения, семейный, BDRip 1080p] Dub (iTunes) + Original + Sub makkol
2886 | 443

1 | 354

38

11.10.2019 15:13

Мультфильмы [HDDVDRip / BDRip / WEB-DL / HDTV 1080/720р] Король Лев / The Lion King (Джон Фавро / Jon Favreau) [2019 г., мультфильм, мюзикл, драма, приключения, семейный, BDRip 720p] Dub (iTunes) + Original (Eng) + Sub (Rus, Eng) 90ytr90
1182 | 99

0 | 118

21

12.10.2019 11:09


Яндекс.Метрика powered by Sphinx


В Н И М А Н И Е
Сайт не распространяет и не хранит электронные версии произведений, а лишь бесплатно и без коммерческой выгоды (не требуя взамен платы,
SMS и т.д.) предоставляет доступ к создаваемому пользователями каталогу ссылок на торрент-файлы, которые содержат только списки хеш-сумм.
Убедительная просьба с жалобами обращаться напрямую к пользователю, разместившему торрент файл.

Вверх