Loading...
Error

Дорогой папа (Михаил Расходников) [2019 г., комедия, мелодрама, WEB-DLRip] Original (iTunes)

Статистика раздачи
Размер:  1,37 GB   |    Зарегистрирован:  4 дня   |    Скачан:  6 раз

Полного источника не было: 20 часов

Сидов:  0  |  0 KB/s  ]   Личеров:  0  |  0 KB/s  ]

* - сиды/пиры с внешних источников

   
 
Автор Сообщение

makkol Пол:Муж

12-Окт-2019 11:10

Дорогой папа


Год выпуска: 2019
Жанр: комедия, мелодрама
Производство: Россия [RVV, Renovatio Entertainment]
Режиссер: Михаил Расходников
В ролях: Владимир Вдовиченков, Валентина Ляпина, Владимир Сычёв, Ирина Пегова, Николай Шрайбер, Иева Андреевайте, Игорь Ясулович, Юлия Сулес, Варвара Малкова, Маруся Пестунова
Сюжет фильма:
Владелец ведущей торговой сети Вадим Дюмин привык добиваться своего любыми способами. Обаяние и продуманный план помогают ему найти китайского инвестора, готового стать партнером в компании Вадима, оформленной когда-то на его маму. Вот только, оказалось, она завещала акции своей внучке, его дочери… которую Вадим бросил, когда ей было 2 года. Теперь Вадим должен поехать в свой родной маленький город, найти бывшую жену и дочь и убедить их отказаться от наследства на сумму … где-то полмиллиарда долларов. Вадим уверен, что его обаяние и манипуляции сработают и здесь, но в мире дочери его методы не работают, и слово "дорогой" здесь совсем не про деньги.

  • Российская премьера: 12 сентября 2019


Качество видео: WEB-DLRip

Продолжительность: 01:27:04
Формат: AVI
Видео: XviD, 720x304 (2.35:1), 24.000 fps, 1860 kbps
Аудио: русский, оригинал (iTunes), AC3 5.1, 48 kHz, 384 kbps

Код:

Формат                                   : AVI
Формат/Информация                        : Audio Video Interleave
Размер файла                             : 1,37 Гбайт
Продолжительность                        : 1 ч. 27 м.
Общий поток                              : 2254 Кбит/сек
Программа кодирования                    : VirtualDubMod 1.5.10.3 | www.virtualdub-fr.org || (build 2550/release)
Библиотека кодирования                   : VirtualDubMod build 2550/release

Видео
Идентификатор                            : 0
Формат                                   : MPEG-4 Visual
Профиль формата                          : Advanced Simple@L5
Настройки формата                        : BVOP1
Параметр BVOP формата                    : 1
Параметр QPel формата                    : Нет
Параметр GMC формата                     : Без точки перехода
Параметр матрицы формата                 : Default (MPEG)
Идентификатор кодека                     : XVID
Идентификатор кодека/Подсказка           : XviD
Продолжительность                        : 1 ч. 27 м.
Битрейт                                  : 1860 Кбит/сек
Ширина                                   : 720 пикселей
Высота                                   : 304 пикселя
Соотношение сторон                       : 2,35:1
Частота кадров                           : 24,000 кадра/сек
Цветовое пространство                    : YUV
Субдискретизация насыщенности            : 4:2:0
Битовая глубина                          : 8 бит
Тип развёртки                            : Прогрессивная
Метод сжатия                             : С потерями
Бит/(Пиксели*Кадры)                      : 0.354
Размер потока                            : 1,13 Гбайт (83%)
Библиотека кодирования                   : XviD 73

Аудио
Идентификатор                            : 1
Формат                                   : AC-3
Формат/Информация                        : Audio Coding 3
Коммерческое название                    : Dolby Digital
Идентификатор кодека                     : 2000
Продолжительность                        : 1 ч. 27 м.
Вид битрейта                             : Постоянный
Битрейт                                  : 384 Кбит/сек
Каналы                                   : 6 каналов
ChannelLayout                            : L R C LFE Ls Rs
Частота                                  : 48,0 КГц
Частота кадров                           : 31,250 кадров/сек (1536 SPF)
Битовая глубина                          : 16 бит
Метод сжатия                             : С потерями
Размер потока                            : 239 Мбайт (17%)
Выравнивание                             : Разделение по промежуткам
Продолжительность промежутка             : 42  мс. (1,00 видеокадр)
Время предзагрузки промежутка            : 500  мс.
ServiceKind/String                       : Complete Main
picpicpicpicpic
Для увеличения картинки щелкните мышкой по превью

Этот торрент недоступен для скачивания без регистрации, однако доступен по публичной magnet-ссылке (источники с публичных трекеров). Перед использованием ссылки прочтите, пожалуйста Пользовательское соглашение, а также как можно дольше оставайтесь на раздаче! Для того, чтобы скачать сам торрент-файл (который видит больше источников), а также для того, чтобы поблагодарить релизера, вам необходимо зарегистрироваться. Если регистрироваться лень - вы можете также попробовать скачать релиз по нашим партнерским ссылкам ниже. Кроме того, зарегистрированным пользователям не показывается всплывающая реклама при скачивании.

[underver.se].t146931.torrent
Трекер: Зарегистрирован   [ 12.10.2019 11:10 ]  

Статус: проверено (by makkol at 12.10.2019 11:11)
Поблагодарили: пока никто не поблагодарил...
Тип торрента: публичный - доступные источники с открытых трекеров: 
Размер: 1,37 GB (занимает 0,31 DVDR, для записи нужно 1 болванка DVDR/RW)
 
 
Похожие темы
Форум Тема Автор Торрент Отв. Посл. сооб.
Наше кино [DVDRip, Low-Res HDRip, и т.д.] Дорогой папа (Михаил Расходников) [2019 г., комедия, мелодрама, WEB-DLRip-AVC] Original (iTunes) makkol
453 | 9

0 | 111

4

12.10.2019 11:14

Зарубежное кино [HDDVDRip / BDRip / WEB-DL / HDTV 1080/720р] Дорогой папа (Михаил Расходников) [2019 г., комедия, семейный, WEB-DL 720p] Original (iTunes) 90ytr90
234 | 3

0 | 144

6

12.10.2019 13:30

Наше кино [HDDVDRip / BDRip / WEB-DL / HDTV 1080/720р] Дорогой папа (Михаил Расходников) [2019 г., комедия, семейный, WEB-DL 1080p] Original (iTunes) 90ytr90
2021 | 145

0 | 416

18

12.10.2019 11:11


Яндекс.Метрика powered by Sphinx


В Н И М А Н И Е
Сайт не распространяет и не хранит электронные версии произведений, а лишь бесплатно и без коммерческой выгоды (не требуя взамен платы,
SMS и т.д.) предоставляет доступ к создаваемому пользователями каталогу ссылок на торрент-файлы, которые содержат только списки хеш-сумм.
Убедительная просьба с жалобами обращаться напрямую к пользователю, разместившему торрент файл.

Вверх