Loading...
Error

(Шансон) Григорий Лепс - GRAND Collection. Лучшее для лучших (2014) [FLAC (Image+.Cue), Lossless]

Статистика раздачи
Размер:  580 MB   |    Зарегистрирован:  4 дня   |    Скачан:  2 раза

Полного источника не было: 13 часов

Сидов:  0  |  0 KB/s  ]   Личеров:  0  |  0 KB/s  ]

* - сиды/пиры с внешних источников

   
 
Автор Сообщение

Бишеп Пол:Муж

12-Окт-2019 16:04

Григорий Лепс - GRAND Collection. Лучшее для лучших

Жанр: Шансон
Год выпуска: 2014
Носитель: CD
Производитель диска: United Music Group, Квадро-Диск - UMGCD14-404
Аудиокодек: FLAC
Тип рипа: Image+.CUE
Битрейт аудио: lossless
Продолжительность: 01:18:39


Треклист:
01. Водопадом (4:21)
02. Натали (4:48)
03. Рюмка водки на столе (4:19)
04. Ну и что? (5:38)
05. Я счастливый (3:58)
06. Дом хрустальный (3:29)
07. Григорий Лепс и Ирина Аллегрова - Я тебе не верю (4:06)
08. Лабиринт (5:05)
09. Танго разбитых сердец (3:48)
10. Парус (3:11)
11. Григорий Лепс и Стас Пьеха - Она не твоя (3:39)
12. Боже, как долго (3:36)
13. Купола (6:41)
14. Крыса-ревность (4:10)
15. Шелест (4:00)
16. Расскажи (5:46)
17. Берега (4:04)
18. Григорий Лепс и Слава - Не жди меня (3:58)

 Exact Audio Copy V1.0 beta 4 from 7. December 2014 

Отчёт EAC об извлечении, выполненном 6. февраля 2015, 13:42

Григорий Лепс / GRAND collection. Лучшее для лучших

Дисковод: ASUS DRW-24B3ST Adapter: 3 ID: 0

Режим чтения : Достоверность
Использование точного потока : Да
Отключение кэша аудио : Да
Использование указателей C2 : Нет

Коррекция смещения при чтении : 6
Способность читать области Lead-in и Lead-out : Нет
Заполнение пропущенных сэмплов тишиной : Да
Удаление блоков с тишиной в начале и конце : Нет
При вычислениях CRC использовались нулевые сэмплы : Да
Интерфейс : Установленный внешний ASPI-интерфейс

Выходной формат : Внутренние WAV-операции
Формат сэмплов : 44.100 Гц; 16 бит; стерео

TOC извлечённого CD

Трек | Старт | Длительность | Начальный сектор | Конечный сектор
---------------------------------------------------------------------
1 | 0:00.00 | 4:20.46 | 0 | 19545
2 | 4:20.46 | 4:48.19 | 19546 | 41164
3 | 9:08.65 | 4:19.20 | 41165 | 60609
4 | 13:28.10 | 5:38.12 | 60610 | 85971
5 | 19:06.22 | 3:58.30 | 85972 | 103851
6 | 23:04.52 | 3:29.00 | 103852 | 119526
7 | 26:33.52 | 4:06.32 | 119527 | 138008
8 | 30:40.09 | 5:05.17 | 138009 | 160900
9 | 35:45.26 | 3:48.00 | 160901 | 178000
10 | 39:33.26 | 3:11.37 | 178001 | 192362
11 | 42:44.63 | 3:38.65 | 192363 | 208777
12 | 46:23.53 | 3:35.73 | 208778 | 224975
13 | 49:59.51 | 6:41.37 | 224976 | 255087
14 | 56:41.13 | 4:09.74 | 255088 | 273836
15 | 60:51.12 | 4:00.22 | 273837 | 291858
16 | 64:51.34 | 5:45.38 | 291859 | 317771
17 | 70:36.72 | 4:04.18 | 317772 | 336089
18 | 74:41.15 | 3:58.08 | 336090 | 353947

Характеристики диапазона извлечения и сообщения об ошибках

Выбранный диапазон

Имя файла C:\vlad victorovich\Григорий Лепс - GRAND collection. Лучшее для лучших\Григорий Лепс - GRAND collection. Лучшее для лучших.wav

Пиковый уровень 98.1 %
Скорость извлечения 3.7 X
Качество диапазона 100.0 %
CRC теста 29B16F7D
CRC копии 29B16F7D
Копирование... OK

Ошибок не произошло

AccurateRip: сводка
Трек 1 отсутствует в базе данных
Трек 2 отсутствует в базе данных
Трек 3 отсутствует в базе данных
Трек 4 отсутствует в базе данных
Трек 5 отсутствует в базе данных
Трек 6 отсутствует в базе данных
Трек 7 отсутствует в базе данных
Трек 8 отсутствует в базе данных
Трек 9 отсутствует в базе данных
Трек 10 отсутствует в базе данных
Трек 11 отсутствует в базе данных
Трек 12 отсутствует в базе данных
Трек 13 отсутствует в базе данных
Трек 14 отсутствует в базе данных
Трек 15 отсутствует в базе данных
Трек 16 отсутствует в базе данных
Трек 17 отсутствует в базе данных
Трек 18 отсутствует в базе данных
Ни одного трека нет в базе AccurateRip

Конец отчёта

==== Контрольная сумма отчёта 820351930489639A6725D871F23A2B80D7C5BD6B18C2C703EB8BF54E23BF0A34 ====
 REM GENRE Chanson 
REM DATE 2014
REM DISCID 05126F12
REM COMMENT "ExactAudioCopy v1.0b4"
PERFORMER "Григорий Лепс"
TITLE "GRAND collection. Лучшее для лучших"
FILE "Григорий Лепс - GRAND collection. Лучшее для лучших.flac" WAVE
TRACK 01 AUDIO
TITLE "Водопадом"
PERFORMER "Григорий Лепс"
INDEX 01 00:00:00
TRACK 02 AUDIO
TITLE "Натали"
PERFORMER "Григорий Лепс"
INDEX 01 04:20:46
TRACK 03 AUDIO
TITLE "Рюмка водки на столе"
PERFORMER "Григорий Лепс"
INDEX 01 09:08:65
TRACK 04 AUDIO
TITLE "Ну и что?"
PERFORMER "Григорий Лепс"
INDEX 01 13:28:10
TRACK 05 AUDIO
TITLE "Я счастливый"
PERFORMER "Григорий Лепс"
INDEX 01 19:06:22
TRACK 06 AUDIO
TITLE "Дом хрустальный"
PERFORMER "Григорий Лепс"
INDEX 01 23:04:52
TRACK 07 AUDIO
TITLE "Я тебе не верю"
PERFORMER "Григорий Лепс и Ирина Аллегрова"
INDEX 01 26:33:52
TRACK 08 AUDIO
TITLE "Лабиринт"
PERFORMER "Григорий Лепс"
INDEX 01 30:40:09
TRACK 09 AUDIO
TITLE "Танго разбитых сердец"
PERFORMER "Григорий Лепс"
INDEX 01 35:45:26
TRACK 10 AUDIO
TITLE "Парус"
PERFORMER "Григорий Лепс"
INDEX 01 39:33:26
TRACK 11 AUDIO
TITLE "Она не твоя"
PERFORMER "Григорий Лепс и Стас Пьеха"
INDEX 01 42:44:63
TRACK 12 AUDIO
TITLE "Боже, как долго"
PERFORMER "Григорий Лепс"
INDEX 01 46:23:53
TRACK 13 AUDIO
TITLE "Купола"
PERFORMER "Григорий Лепс"
INDEX 01 49:59:51
TRACK 14 AUDIO
TITLE "Крыса-ревность"
PERFORMER "Григорий Лепс"
INDEX 01 56:41:13
TRACK 15 AUDIO
TITLE "Шелест"
PERFORMER "Григорий Лепс"
INDEX 01 60:51:12
TRACK 16 AUDIO
TITLE "Расскажи"
PERFORMER "Григорий Лепс"
INDEX 01 64:51:34
TRACK 17 AUDIO
TITLE "Берега"
PERFORMER "Григорий Лепс"
INDEX 01 70:36:72
TRACK 18 AUDIO
TITLE "Не жди меня"
PERFORMER "Григорий Лепс и Слава"
INDEX 01 74:41:15

Этот торрент недоступен для скачивания без регистрации, однако доступен по публичной magnet-ссылке (источники с публичных трекеров). Перед использованием ссылки прочтите, пожалуйста Пользовательское соглашение, а также как можно дольше оставайтесь на раздаче! Для того, чтобы скачать сам торрент-файл (который видит больше источников), а также для того, чтобы поблагодарить релизера, вам необходимо зарегистрироваться. Если регистрироваться лень - вы можете также попробовать скачать релиз по нашим партнерским ссылкам ниже. Кроме того, зарегистрированным пользователям не показывается всплывающая реклама при скачивании.

[underver.se].t146961.torrent
Трекер: Зарегистрирован   [ 12.10.2019 16:04 ]  

Статус: проверено (by Бишеп at 12.10.2019 16:04)
Поблагодарили: пока никто не поблагодарил...
Тип торрента: публичный - доступные источники с открытых трекеров: 
Размер: 580 MB (занимает 0,13 DVDR, для записи нужно 1 болванка DVDR/RW)
 
 
Похожие темы
Форум Тема Автор Торрент Отв. Посл. сооб.
Шансон (Шансон) Григорий Лепс и Александр Розенбаум - Берега чистого братства (2011) [MP3, 320 kbps] aretemka178
0 | 0

1 | 2466

52

04.01.2012 07:54

Шансон (Шансон) Григорий Лепс - Дуэты (2012) [MP3, 320 kbps CBR] terra07
3 | 0

0 | 2586

51

04.09.2013 18:28

Шансон (Шансон) Группа Кабриолет - Золотой альбом (Golden Album) (2011) [MP3, 320 kbps CBR] valera87
1 | 0

0 | 3358

26

16.12.2013 19:56

Шансон (Шансон) группа БумеR (Бумер) - X (Десятый альбом) (2019) [MP3, 192 kbps CBR] Magnat
0 | 0

0 | 178

6

02.06.2019 12:21

Шансон (Шансон) Группа «Владимир» - Комета (2019) [MP3, 192 kbps CBR] Magnat
0 | 0

0 | 156

4

02.06.2019 12:37

Шансон (Шансон) Группа Бутырка - Голубка (2019) [MP3, 320 kbps CBR] Magnat
27 | 3

0 | 171

7

02.06.2019 12:44

Шансон (Шансон) Группа «Дальний свет» - Дискография (4 альбома) (1999-2004) [MP3, 320 kbps CBR] Magnat
0 | 0

0 | 145

2

02.06.2019 12:57

Шансон (Lossless) (Шансон) Группа Весна - Самый близкий человек (2013) [FLAC (Image+.CUE), Lossless] Бишеп
0 | 0

1 | 2830

10

20.11.2013 04:25

Шансон (Lossless) (Шансон) Григорий Лепс - Серия: Музыкальный архив. Возвращение к истокам (2003) [FLAC (Image+.CUE), Lossless] Бишеп
3 | 0

0 | 2356

9

25.11.2013 13:37

Шансон (Lossless) (Шансон) Группа Бутырка - Новая коллекция. Лучшие песни. Часть II (2011) [FLAC (Image+.CUE), Lossless] Бишеп
1 | 0

1 | 2842

15

22.06.2014 21:30


Яндекс.Метрика powered by Sphinx


В Н И М А Н И Е
Сайт не распространяет и не хранит электронные версии произведений, а лишь бесплатно и без коммерческой выгоды (не требуя взамен платы,
SMS и т.д.) предоставляет доступ к создаваемому пользователями каталогу ссылок на торрент-файлы, которые содержат только списки хеш-сумм.
Убедительная просьба с жалобами обращаться напрямую к пользователю, разместившему торрент файл.

Вверх