Loading...
Error

(Шансон) Лесоповал - Лучшее (2CD) (2010) [FLAC (Image+.Cue), Lossless]

Статистика раздачи
Размер:  1,07 GB   |    Зарегистрирован:  4 дня   |    Скачан:  1 раз

Полного источника не было: 1 день 20 часов

Сидов:  0  |  0 KB/s  ]   Личеров:  0  |  0 KB/s  ]

* - сиды/пиры с внешних источников

   
 
Автор Сообщение

Бишеп Пол:Муж

12-Окт-2019 17:07

Лесоповал - Лучшее

Жанр: Шансон
Год выпуска: 2010
Носитель: CD
Производитель диска: Star Mark - 26462-1/2
Аудиокодек: FLAC
Тип рипа: Tracks+.CUE
Битрейт аудио: lossless
Продолжительность: 02:37:51

Треклист:
01. Форточка
02. Письмо
03. Мама - улица
04. Я куплю тебе дом
05. Я - оттуда
06. Заповедь
07. Посидим пацаны
08. Кореша
09. Был пацан
10. Первый срок
11. Бегут вагончики
12. Погляди мне в глаза
13. Наша жизнь
14. Лесоповал
15. Ветка мимозы
16. Личное свидание
17. Голубика
18. Я говорил люблю кому-то
19. Сто двадцать прописью
20. Год за два
21. Первая девочка

 Exact Audio Copy V1.0 beta 3 from 29. August 2011 

Отчёт EAC об извлечении, выполненном 13. ноября 2013, 18:10

Лесоповал / Лучшее

Дисковод: Optiarc DVD RW AD-5240S Adapter: 3 ID: 1

Режим чтения : Достоверность
Использование точного потока : Да
Отключение кэша аудио : Да
Использование указателей C2 : Нет

Коррекция смещения при чтении : 48
Способность читать области Lead-in и Lead-out : Нет
Заполнение пропущенных сэмплов тишиной : Да
Удаление блоков с тишиной в начале и конце : Нет
При вычислениях CRC использовались нулевые сэмплы : Да
Интерфейс : Установленный внешний ASPI-интерфейс

Выходной формат : Пользовательский кодировщик
Выбранный битрейт : 896 kBit/s
Качество : Высокий
Добавление ID3-тега : Нет
Утилита сжатия : C:\Program Files (x86)\Exact Audio Copy\Flac\flac.exe
Дополнительные параметры : -V -8 -T "Date=%year%" -T "Genre=%genre%" %source%

TOC извлечённого CD

Трек | Старт | Длительность | Начальный сектор | Конечный сектор
---------------------------------------------------------------------
1 | 0:00.00 | 3:31.57 | 0 | 15881
2 | 3:31.57 | 3:25.62 | 15882 | 31318
3 | 6:57.44 | 3:35.38 | 31319 | 47481
4 | 10:33.07 | 4:18.68 | 47482 | 66899
5 | 14:52.00 | 3:19.48 | 66900 | 81872
6 | 18:11.48 | 3:27.37 | 81873 | 97434
7 | 21:39.10 | 4:03.06 | 97435 | 115665
8 | 25:42.16 | 4:07.22 | 115666 | 134212
9 | 29:49.38 | 4:06.16 | 134213 | 152678
10 | 33:55.54 | 2:56.40 | 152679 | 165918
11 | 36:52.19 | 3:20.32 | 165919 | 180950
12 | 40:12.51 | 3:55.24 | 180951 | 198599
13 | 44:08.00 | 3:57.26 | 198600 | 216400
14 | 48:05.26 | 4:13.10 | 216401 | 235385
15 | 52:18.36 | 3:39.38 | 235386 | 251848
16 | 55:57.74 | 3:24.34 | 251849 | 267182
17 | 59:22.33 | 3:32.44 | 267183 | 283126
18 | 62:55.02 | 3:43.56 | 283127 | 299907
19 | 66:38.58 | 3:13.16 | 299908 | 314398
20 | 69:51.74 | 4:36.15 | 314399 | 335113
21 | 74:28.14 | 4:39.40 | 335114 | 356078

Характеристики диапазона извлечения и сообщения об ошибках

Выбранный диапазон

Имя файла G:\lossless\Лесоповал\Лесоповал - Лучшее - 2010 (2CD)\CD 1\Лесоповал - Лучшее.wav

Пиковый уровень 100.0 %
Скорость извлечения 4.6 X
Качество диапазона 100.0 %
CRC теста C2FA0EF1
CRC копии C2FA0EF1
Копирование... OK

Ошибок не произошло

AccurateRip: сводка
Трек 1 отсутствует в базе данных
Трек 2 отсутствует в базе данных
Трек 3 отсутствует в базе данных
Трек 4 отсутствует в базе данных
Трек 5 отсутствует в базе данных
Трек 6 отсутствует в базе данных
Трек 7 отсутствует в базе данных
Трек 8 отсутствует в базе данных
Трек 9 отсутствует в базе данных
Трек 10 отсутствует в базе данных
Трек 11 отсутствует в базе данных
Трек 12 отсутствует в базе данных
Трек 13 отсутствует в базе данных
Трек 14 отсутствует в базе данных
Трек 15 отсутствует в базе данных
Трек 16 отсутствует в базе данных
Трек 17 отсутствует в базе данных
Трек 18 отсутствует в базе данных
Трек 19 отсутствует в базе данных
Трек 20 отсутствует в базе данных
Трек 21 отсутствует в базе данных
Ни одного трека нет в базе AccurateRip

Конец отчёта

==== Контрольная сумма отчёта F0277140F497C0573382EEE3E8F6D4FA03273027FD30620869A1EAF67D61C2BB ====
 REM GENRE Chanson 
REM DATE 2010
REM DISCID 1C128B15
REM COMMENT "ExactAudioCopy v1.0b3"
PERFORMER "Лесоповал"
TITLE "Лучшее"
FILE "Лесоповал - Лучшее.flac" WAVE
TRACK 01 AUDIO
TITLE "Форточка"
PERFORMER "Лесоповал"
FLAGS DCP
INDEX 01 00:00:00
TRACK 02 AUDIO
TITLE "Пмсьмо"
PERFORMER "Лесоповал"
FLAGS DCP
INDEX 00 03:29:57
INDEX 01 03:31:57
TRACK 03 AUDIO
TITLE "Мама - улица"
PERFORMER "Лесоповал"
FLAGS DCP
INDEX 00 06:55:44
INDEX 01 06:57:44
TRACK 04 AUDIO
TITLE "Я куплю тебе дом"
PERFORMER "Лесоповал"
FLAGS DCP
INDEX 00 10:31:07
INDEX 01 10:33:07
TRACK 05 AUDIO
TITLE "Я - оттуда"
PERFORMER "Лесоповал"
FLAGS DCP
INDEX 00 14:50:00
INDEX 01 14:52:00
TRACK 06 AUDIO
TITLE "Заповедь"
PERFORMER "Лесоповал"
FLAGS DCP
INDEX 00 18:09:48
INDEX 01 18:11:48
TRACK 07 AUDIO
TITLE "Посидим пацаны"
PERFORMER "Лесоповал"
FLAGS DCP
INDEX 00 21:37:10
INDEX 01 21:39:10
TRACK 08 AUDIO
TITLE "Кореша"
PERFORMER "Лесоповал"
FLAGS DCP
INDEX 00 25:40:16
INDEX 01 25:42:16
TRACK 09 AUDIO
TITLE "Был пацан"
PERFORMER "Лесоповал"
FLAGS DCP
INDEX 00 29:47:38
INDEX 01 29:49:38
TRACK 10 AUDIO
TITLE "Первый срок"
PERFORMER "Лесоповал"
FLAGS DCP
INDEX 00 33:53:54
INDEX 01 33:55:54
TRACK 11 AUDIO
TITLE "Бегут вагончики"
PERFORMER "Лесоповал"
FLAGS DCP
INDEX 00 36:50:19
INDEX 01 36:52:19
TRACK 12 AUDIO
TITLE "Погляди мне в глаза"
PERFORMER "Лесоповал"
FLAGS DCP
INDEX 00 40:10:51
INDEX 01 40:12:51
TRACK 13 AUDIO
TITLE "Наша жизнь"
PERFORMER "Лесоповал"
FLAGS DCP
INDEX 00 44:06:00
INDEX 01 44:08:00
TRACK 14 AUDIO
TITLE "Лесоповал"
PERFORMER "Лесоповал"
FLAGS DCP
INDEX 00 48:03:26
INDEX 01 48:05:26
TRACK 15 AUDIO
TITLE "Ветка мимозы"
PERFORMER "Лесоповал"
FLAGS DCP
INDEX 00 52:16:36
INDEX 01 52:18:36
TRACK 16 AUDIO
TITLE "Личное свидание"
PERFORMER "Лесоповал"
FLAGS DCP
INDEX 00 55:55:74
INDEX 01 55:57:74
TRACK 17 AUDIO
TITLE "Голубика"
PERFORMER "Лесоповал"
FLAGS DCP
INDEX 00 59:20:33
INDEX 01 59:22:33
TRACK 18 AUDIO
TITLE "Я говорил люблю кому-то"
PERFORMER "Лесоповал"
FLAGS DCP
INDEX 00 62:53:02
INDEX 01 62:55:02
TRACK 19 AUDIO
TITLE "Сто двадцать прописью"
PERFORMER "Лесоповал"
FLAGS DCP
INDEX 00 66:36:58
INDEX 01 66:38:58
TRACK 20 AUDIO
TITLE "Год за два"
PERFORMER "Лесоповал"
FLAGS DCP
INDEX 00 69:49:74
INDEX 01 69:51:74
TRACK 21 AUDIO
TITLE "Первая девочка"
PERFORMER "Лесоповал"
FLAGS DCP
INDEX 00 74:26:14
INDEX 01 74:28:14
Треклист:
01. Забыто всё
02. Гитарка
03. От всей души
04. Закидоны
05. Сибирские реки
06. Было трое нас дружков
07. Свобода, блин!
08. Кореш
09. Соловьи
10. Письмо матери
11. Не сказать, что люблю
12. Столыпинский вагон
13. Когда я приду
14. Королева Марго
15. Сто первый километр
16. Морячка
17. Дорога к тебе
18. Штабеля
19. Форточки - лопатники
20. Сухарики
21. Молитва

 Exact Audio Copy V1.0 beta 3 from 29. August 2011 

Отчёт EAC об извлечении, выполненном 13. ноября 2013, 19:39

Лесоповал / Лучшее - CD2

Дисковод: Optiarc DVD RW AD-5240S Adapter: 3 ID: 1

Режим чтения : Достоверность
Использование точного потока : Да
Отключение кэша аудио : Да
Использование указателей C2 : Нет

Коррекция смещения при чтении : 48
Способность читать области Lead-in и Lead-out : Нет
Заполнение пропущенных сэмплов тишиной : Да
Удаление блоков с тишиной в начале и конце : Нет
При вычислениях CRC использовались нулевые сэмплы : Да
Интерфейс : Установленный внешний ASPI-интерфейс

Выходной формат : Пользовательский кодировщик
Выбранный битрейт : 896 kBit/s
Качество : Высокий
Добавление ID3-тега : Нет
Утилита сжатия : C:\Program Files (x86)\Exact Audio Copy\Flac\flac.exe
Дополнительные параметры : -V -8 -T "Date=%year%" -T "Genre=%genre%" %source%

TOC извлечённого CD

Трек | Старт | Длительность | Начальный сектор | Конечный сектор
---------------------------------------------------------------------
1 | 0:00.00 | 3:44.22 | 0 | 16821
2 | 3:44.22 | 4:03.47 | 16822 | 35093
3 | 7:47.69 | 3:44.14 | 35094 | 51907
4 | 11:32.08 | 3:25.04 | 51908 | 67286
5 | 14:57.12 | 3:46.66 | 67287 | 84302
6 | 18:44.03 | 4:41.25 | 84303 | 105402
7 | 23:25.28 | 2:30.35 | 105403 | 116687
8 | 25:55.63 | 3:54.04 | 116688 | 134241
9 | 29:49.67 | 4:10.22 | 134242 | 153013
10 | 34:00.14 | 4:41.25 | 153014 | 174113
11 | 38:41.39 | 3:41.66 | 174114 | 190754
12 | 42:23.30 | 3:23.10 | 190755 | 205989
13 | 45:46.40 | 3:32.68 | 205990 | 221957
14 | 49:19.33 | 4:01.52 | 221958 | 240084
15 | 53:21.10 | 3:51.11 | 240085 | 257420
16 | 57:12.21 | 3:22.09 | 257421 | 272579
17 | 60:34.30 | 3:29.30 | 272580 | 288284
18 | 64:03.60 | 3:33.45 | 288285 | 304304
19 | 67:37.30 | 3:47.47 | 304305 | 321376
20 | 71:25.02 | 3:14.35 | 321377 | 335961
21 | 74:39.37 | 4:00.43 | 335962 | 354004

Характеристики диапазона извлечения и сообщения об ошибках

Выбранный диапазон

Имя файла G:\lossless\Лесоповал\Лесоповал - Лучшее - 2010 (2CD)\CD 2\Лесоповал - Лучшее - CD2.wav

Пиковый уровень 100.0 %
Скорость извлечения 4.6 X
Качество диапазона 99.9 %
CRC теста CE485BDE
CRC копии CE485BDE
Копирование... OK

Ошибок не произошло

AccurateRip: сводка
Трек 1 отсутствует в базе данных
Трек 2 отсутствует в базе данных
Трек 3 отсутствует в базе данных
Трек 4 отсутствует в базе данных
Трек 5 отсутствует в базе данных
Трек 6 отсутствует в базе данных
Трек 7 отсутствует в базе данных
Трек 8 отсутствует в базе данных
Трек 9 отсутствует в базе данных
Трек 10 отсутствует в базе данных
Трек 11 отсутствует в базе данных
Трек 12 отсутствует в базе данных
Трек 13 отсутствует в базе данных
Трек 14 отсутствует в базе данных
Трек 15 отсутствует в базе данных
Трек 16 отсутствует в базе данных
Трек 17 отсутствует в базе данных
Трек 18 отсутствует в базе данных
Трек 19 отсутствует в базе данных
Трек 20 отсутствует в базе данных
Трек 21 отсутствует в базе данных
Ни одного трека нет в базе AccurateRip

Конец отчёта

==== Контрольная сумма отчёта 2B6D11B5AA7EBAB9D9EDFB5FF5894B39AB894CBD28A32C309EE82E6530FA58A4 ====
 REM GENRE Chanson 
REM DATE 2010
REM DISCID 44127015
REM COMMENT "ExactAudioCopy v1.0b3"
PERFORMER "Лесоповал"
TITLE "Лучшее - CD2"
FILE "Лесоповал - Лучшее - CD2.flac" WAVE
TRACK 01 AUDIO
TITLE "Забыто все"
PERFORMER "Лесоповал"
FLAGS DCP
INDEX 01 00:00:00
TRACK 02 AUDIO
TITLE "Гитарка"
PERFORMER "Лесоповал"
FLAGS DCP
INDEX 00 03:42:22
INDEX 01 03:44:22
TRACK 03 AUDIO
TITLE "От всей души"
PERFORMER "Лесоповал"
FLAGS DCP
INDEX 00 07:45:69
INDEX 01 07:47:69
TRACK 04 AUDIO
TITLE "Закидоны "
PERFORMER "Лесоповал"
FLAGS DCP
INDEX 00 11:30:08
INDEX 01 11:32:08
TRACK 05 AUDIO
TITLE "Сибирские Реки"
PERFORMER "Лесоповал"
FLAGS DCP
INDEX 00 14:55:12
INDEX 01 14:57:12
TRACK 06 AUDIO
TITLE "Было трое нас дружков "
PERFORMER "Лесоповал"
FLAGS DCP
INDEX 00 18:42:03
INDEX 01 18:44:03
TRACK 07 AUDIO
TITLE "Свобода, блин!"
PERFORMER "Лесоповал"
FLAGS DCP
INDEX 00 23:23:28
INDEX 01 23:25:28
TRACK 08 AUDIO
TITLE "Кореш "
PERFORMER "Лесоповал"
FLAGS DCP
INDEX 00 25:53:63
INDEX 01 25:55:63
TRACK 09 AUDIO
TITLE "Соловьи "
PERFORMER "Лесоповал"
FLAGS DCP
INDEX 00 29:47:67
INDEX 01 29:49:67
TRACK 10 AUDIO
TITLE "Письмо матери "
PERFORMER "Лесоповал"
FLAGS DCP
INDEX 00 33:58:14
INDEX 01 34:00:14
TRACK 11 AUDIO
TITLE "Не сказать. что люблю"
PERFORMER "Лесоповал"
FLAGS DCP
INDEX 00 38:39:39
INDEX 01 38:41:39
TRACK 12 AUDIO
TITLE "Столыпинский вагон"
PERFORMER "Лесоповал"
FLAGS DCP
INDEX 00 42:21:31
INDEX 01 42:23:30
TRACK 13 AUDIO
TITLE "Когда я приду"
PERFORMER "Лесоповал"
FLAGS DCP
INDEX 00 45:44:40
INDEX 01 45:46:40
TRACK 14 AUDIO
TITLE "Королева Марго"
PERFORMER "Лесоповал"
FLAGS DCP
INDEX 00 49:17:33
INDEX 01 49:19:33
TRACK 15 AUDIO
TITLE "Сто первый километр "
PERFORMER "Лесоповал"
FLAGS DCP
INDEX 00 53:19:10
INDEX 01 53:21:10
TRACK 16 AUDIO
TITLE "Морячка "
PERFORMER "Лесоповал"
FLAGS DCP
INDEX 00 57:10:21
INDEX 01 57:12:21
TRACK 17 AUDIO
TITLE "Дорога к тебе"
PERFORMER "Лесоповал"
FLAGS DCP
INDEX 00 60:32:30
INDEX 01 60:34:30
TRACK 18 AUDIO
TITLE "Штабеля"
PERFORMER "Лесоповал"
FLAGS DCP
INDEX 00 64:01:60
INDEX 01 64:03:60
TRACK 19 AUDIO
TITLE "Форточки-лопатники"
PERFORMER "Лесоповал"
FLAGS DCP
INDEX 00 67:35:30
INDEX 01 67:37:30
TRACK 20 AUDIO
TITLE "Сухарики"
PERFORMER "Лесоповал"
FLAGS DCP
INDEX 00 71:23:02
INDEX 01 71:25:02
TRACK 21 AUDIO
TITLE "Молитва"
PERFORMER "Лесоповал"
FLAGS DCP
INDEX 00 74:37:37
INDEX 01 74:39:37

Этот торрент недоступен для скачивания без регистрации, однако доступен по публичной magnet-ссылке (источники с публичных трекеров). Перед использованием ссылки прочтите, пожалуйста Пользовательское соглашение, а также как можно дольше оставайтесь на раздаче! Для того, чтобы скачать сам торрент-файл (который видит больше источников), а также для того, чтобы поблагодарить релизера, вам необходимо зарегистрироваться. Если регистрироваться лень - вы можете также попробовать скачать релиз по нашим партнерским ссылкам ниже. Кроме того, зарегистрированным пользователям не показывается всплывающая реклама при скачивании.

[underver.se].t146969.torrent
Трекер: Зарегистрирован   [ 12.10.2019 17:07 ]  

Статус: проверено (by Бишеп at 12.10.2019 17:08)
Поблагодарили: пока никто не поблагодарил...
Тип торрента: публичный - доступные источники с открытых трекеров: 
Размер: 1,07 GB (занимает 0,24 DVDR, для записи нужно 1 болванка DVDR/RW)
 
 
Похожие темы
Форум Тема Автор Торрент Отв. Посл. сооб.
Шансон (Шансон) Лера Огонёк - Солнце на ладони (2019) [MP3, 320 kbps CBR] Magnat
0 | 0

0 | 136

5

02.06.2019 12:24

Шансон (Шансон) Любовь Успенская - Значит, пора (2019) [MP3, 320 kbps CBR] Magnat
17 | 1

0 | 140

7

02.06.2019 12:28

Шансон (Шансон) Лера Огонёк - Коллекция (2017-2018) [MP3, 320 kbps CBR] Magnat
3 | 0

0 | 145

4

02.06.2019 12:40

Шансон (Lossless) (Шансон) Легенды жанра: Трофим - Снегири (2004) [FLAC (Image+.CUE), Lossless] Бишеп
1 | 0

0 | 1789

4

22.04.2012 15:53

Шансон (Lossless) (Шансон) Легенды блатной песни: Группа Американка - Шарабан (2002) [FLAC (Image+.CUE), Lossless] Бишеп
1 | 0

0 | 3638

25

12.05.2012 07:40

Шансон (Lossless) (Шансон) Ля-Миноръ - Она была первой (2013) [FLAC (Image+.CUE), Lossless] Бишеп
5 | 0

0 | 1549

8

28.12.2014 16:51

Архив (HQ ретро, шансон, военная музыка, барды) (Шансон) Лесоповал - Легенды Русского Шансона (Том 7) (2001) [FLAC (Image+.CUE), lossless] Bratok
0 | 0

3 | 2986

12

31.01.2018 21:20


Яндекс.Метрика powered by Sphinx


В Н И М А Н И Е
Сайт не распространяет и не хранит электронные версии произведений, а лишь бесплатно и без коммерческой выгоды (не требуя взамен платы,
SMS и т.д.) предоставляет доступ к создаваемому пользователями каталогу ссылок на торрент-файлы, которые содержат только списки хеш-сумм.
Убедительная просьба с жалобами обращаться напрямую к пользователю, разместившему торрент файл.

Вверх