Loading...
Error

Скин / Skin (Гай Наттив / Guy Nattiv) [2018 г., драма, криминал, биография, BDRemux 1080p] Dub (iTunes) + Original (Eng) + Sub (Rus, Eng)

Статистика раздачи
Размер:  22,56 GB   |    Зарегистрирован:  4 дня   |    Скачан:  1 раз

Полного источника не было: 2 часа 11 минут

Сидов:  0  |  0 KB/s  ]   Личеров:  0  |  0 KB/s  ]

* - сиды/пиры с внешних источников

   
 
Автор Сообщение

90ytr90 

12-Окт-2019 17:16

Скин / Skin

Страна: США
Год выпуска: 2018
Жанр: драма, криминал, биография
Продолжительность: 01:58:26
Озвучивание:
  • профессиональное (полное дублирование) [iTunes]
  • оригинальная звуковая дорожка [английский]

Режиссёр: Гай Наттив / Guy Nattiv

В ролях:
Джейми Белл, Даниэль Макдональд, Дэниэл Хеншэлл, Билл Кэмп, Луиса Краузе, Зои Маргарет Коллетти, Кайли Роджерс, Колби Ганнетт, Майк Колтер, Вера Фармига


Сюжет фильма:
Скинхед пытается найти себя в обычной жизни и начинает иначе смотреть на свои поступки, параллельно сталкиваясь с людьми, которые его воспитали.

  • Дата мировой премьеры: 8 сентября 2018
  • Цифровой релиз: 8 августа 2019, «Вольга»
             
Качество видео: BDRemux 1080p
Формат: MKV
Видео: AVC, 1920x1080 (16:9), 25 Mbps, 23.976 (24000/1001) fps, 0.503 bit/pixel
Аудио #1: AC3, 384 kbps, 6 ch, 48 kHz, Dub [iTunes]
Аудио #2: DTS-HD MA, 1891 kbps, 6 ch, 48 kHz, Original [English]
Субтитры: Russian (full), English (full, SDH)
Навигация по главам: есть (12)

Сборка: seleZen
 General 
Unique ID : 307378355768871293415327550025863826420 (0xE73EEAFFA2856CA7A719CDB909048BF4)
Complete name : D:Video111Skin.2018.BDREMUX.1080p.seleZen.mkv
Format : Matroska
Format version : Version 4
File size : 22.6 GiB
Duration : 1 h 58 min
Overall bit rate mode : Variable
Overall bit rate : 27.3 Mb/s
Movie name : Skin 2018 from селезень
Encoded date : UTC 2019-10-12 14:16:28
Writing application : mkvmerge v22.0.0 ('At The End Of The World') 64-bit
Writing library : libebml v1.3.5 + libmatroska v1.4.8

Video
ID : 1
Format : AVC
Format/Info : Advanced Video Codec
Format profile : High@L4.1
Format settings : CABAC / 4 Ref Frames
Format settings, CABAC : Yes
Format settings, Reference : 4 frames
Codec ID : V_MPEG4/ISO/AVC
Duration : 1 h 58 min
Bit rate mode : Variable
Bit rate : 25.0 Mb/s
Maximum bit rate : 35.0 Mb/s
Width : 1 920 pixels
Height : 1 080 pixels
Display aspect ratio : 16:9
Frame rate mode : Constant
Frame rate : 23.976 (24000/1001) FPS
Standard : NTSC
Color space : YUV
Chroma subsampling : 4:2:0
Bit depth : 8 bits
Scan type : Progressive
Bits/(Pixel*Frame) : 0.503
Stream size : 20.7 GiB (92%)
Language : German
Default : Yes
Forced : No
Color range : Limited
Color primaries : BT.709
Transfer characteristics : BT.709
Matrix coefficients : BT.709

Audio #1
ID : 2
Format : AC-3
Format/Info : Audio Coding 3
Commercial name : Dolby Digital
Codec ID : A_AC3
Duration : 1 h 58 min
Bit rate mode : Constant
Bit rate : 384 kb/s
Channel(s) : 6 channels
Channel layout : L R C LFE Ls Rs
Sampling rate : 48.0 kHz
Frame rate : 31.250 FPS (1536 SPF)
Bit depth : 16 bits
Compression mode : Lossy
Stream size : 325 MiB (1%)
Title : iTunes
Language : Russian
Service kind : Complete Main
Default : Yes
Forced : Yes

Audio #2
ID : 3
Format : DTS XLL
Format/Info : Digital Theater Systems
Commercial name : DTS-HD Master Audio
Codec ID : A_DTS
Duration : 1 h 58 min
Bit rate mode : Variable
Bit rate : 1 891 kb/s
Channel(s) : 6 channels
Channel layout : C L R Ls Rs LFE
Sampling rate : 48.0 kHz
Frame rate : 93.750 FPS (512 SPF)
Bit depth : 16 bits
Compression mode : Lossless
Stream size : 1.56 GiB (7%)
Title : Original
Language : English
Default : No
Forced : No

Text #1
ID : 4
Format : UTF-8
Codec ID : S_TEXT/UTF8
Codec ID/Info : UTF-8 Plain Text
Duration : 1 h 51 min
Bit rate : 77 b/s
Count of elements : 1411
Stream size : 62.9 KiB (0%)
Title : Full
Language : Russian
Default : No
Forced : No

Text #2
ID : 5
Format : UTF-8
Codec ID : S_TEXT/UTF8
Codec ID/Info : UTF-8 Plain Text
Duration : 1 h 52 min
Bit rate : 54 b/s
Count of elements : 1417
Stream size : 44.7 KiB (0%)
Title : Full
Language : English
Default : No
Forced : No

Text #3
ID : 6
Format : UTF-8
Codec ID : S_TEXT/UTF8
Codec ID/Info : UTF-8 Plain Text
Duration : 1 h 57 min
Bit rate : 59 b/s
Count of elements : 1702
Stream size : 50.8 KiB (0%)
Title : SDH
Language : English
Default : No
Forced : No

Menu
00:00:00.000 : de:00:00:00.000
00:05:08.600 : de:00:05:08.600
00:12:43.179 : de:00:12:43.179
00:18:54.592 : de:00:18:54.592
00:30:26.116 : de:00:30:26.116
00:36:40.907 : de:00:36:40.907
00:46:40.548 : de:00:46:40.548
01:04:07.677 : de:01:04:07.677
01:17:10.960 : de:01:17:10.960
01:26:51.415 : de:01:26:51.415
01:36:28.992 : de:01:36:28.992
01:44:10.828 : de:01:44:10.828


pic pic pic pic pic

Этот торрент недоступен для скачивания без регистрации, однако доступен по публичной magnet-ссылке (источники с публичных трекеров). Перед использованием ссылки прочтите, пожалуйста Пользовательское соглашение, а также как можно дольше оставайтесь на раздаче! Для того, чтобы скачать сам торрент-файл (который видит больше источников), а также для того, чтобы поблагодарить релизера, вам необходимо зарегистрироваться. Если регистрироваться лень - вы можете также попробовать скачать релиз по нашим партнерским ссылкам ниже. Кроме того, зарегистрированным пользователям не показывается всплывающая реклама при скачивании.

[underver.se].t146972.torrent
Трекер: Зарегистрирован   [ 12.10.2019 17:16 ]  

Статус: проверено (by 90ytr90 at 12.10.2019 18:23)
Поблагодарили: пока никто не поблагодарил...
Тип торрента: публичный - доступные источники с открытых трекеров: 
Размер: 22,56 GB (занимает 5,15 DVDR, для записи нужно 6 болванок DVDR/RW)
 
 
Похожие темы
Форум Тема Автор Торрент Отв. Посл. сооб.
Зарубежное кино [DVDRip, Low-Res HDRip, и т.д.] Скин / Skin (Гай Наттив / Guy Nattiv) [2018 г., драма, криминал, биография, WEB-DLRip] Dub (iTunes) 90ytr90
192 | 11

0 | 344

8

08.08.2019 08:21

Зарубежное кино [DVDRip, Low-Res HDRip, и т.д.] Скин / Skin (Гай Наттив / Guy Nattiv) [2018 г., драма, криминал, биография, WEB-DLRip-AVC] Dub (iTunes) + Original (Eng) + Sub (Rus, Eng) 90ytr90
73 | 11

0 | 323

3

08.08.2019 08:24

Зарубежное кино [DVDRip, Low-Res HDRip, и т.д.] Скин / Skin (Гай Наттив / Guy Nattiv) [2018 г., драма, криминал, биография, BDRip] Dub (iTunes) 90ytr90
449 | 31

0 | 160

1

12.10.2019 17:10

Зарубежное кино [DVDRip, Low-Res HDRip, и т.д.] Скин / Skin (Гай Наттив / Guy Nattiv) [2018 г., драма, криминал, биография, BDRip] Dub (iTunes) + Original (Eng) + Sub (Rus) 90ytr90
107 | 8

0 | 175

2

12.10.2019 18:26

T Зарубежное кино [HDDVDRip / BDRip / WEB-DL / HDTV 1080/720р] Скин / Skin (Гай Наттив / Guy Nattiv) [2018 г., драма, криминал, биография, WEBRip 720p] Dub (чистый звук) 90ytr90
0 | 0

0 | 574

4

02.08.2019 11:39

Зарубежное кино [HDDVDRip / BDRip / WEB-DL / HDTV 1080/720р] Скин / Skin (Гай Наттив / Guy Nattiv) [2018 г., драма, криминал, биография, WEB-DL 1080p] Dub (iTunes) + Original (Eng) + Sub (Rus, Eng) 90ytr90
102 | 7

0 | 332

11

08.08.2019 08:23

Зарубежное кино [HDDVDRip / BDRip / WEB-DL / HDTV 1080/720р] Скин / Skin (Гай Наттив / Guy Nattiv) [2018 г., драма, криминал, биография, BDRip 1080p] Dub (iTunes) + Original (Eng) + Sub (Rus, Eng) 90ytr90
170 | 13

0 | 140

5

12.10.2019 19:31


Яндекс.Метрика powered by Sphinx


В Н И М А Н И Е
Сайт не распространяет и не хранит электронные версии произведений, а лишь бесплатно и без коммерческой выгоды (не требуя взамен платы,
SMS и т.д.) предоставляет доступ к создаваемому пользователями каталогу ссылок на торрент-файлы, которые содержат только списки хеш-сумм.
Убедительная просьба с жалобами обращаться напрямую к пользователю, разместившему торрент файл.

Вверх