Loading...
Error

Пункт назначения: Смайл / Полароид / Polaroid (Ларс Клевберг / Lars Klevberg) [2019 г., ужасы, триллер, драма, BDRemux 1080p] Dub (iTunes) + MVO (HDRezka Studio) + Original (Eng) + Sub (Rus, Eng)

Статистика раздачи
Размер:  23,87 GB   |    Зарегистрирован:  11 дней   |    Скачан:  4 раза
Сидов:  1  |  324 KB/s  ]   Личеров:  0  |  2 MB/s  ]

* - сиды/пиры с внешних источников

   
 
Автор Сообщение

90ytr90 

12-Окт-2019 17:26

Пункт назначения: Смайл / Полароид / Polaroid
«Beware This Camera...Once You Take It, It Takes You»

Страна: Канада, Норвегия, США, Австралия
Год выпуска: 2019
Жанр: ужасы, триллер, драма
Продолжительность: 01:27:59
Озвучивание:
  • профессиональное (полное дублирование) [iTunes]
  • профессиональное (многоголосое закадровое) [HDRezka Studio]
  • оригинальная звуковая дорожка [английский]

Режиссёр: Ларс Клевберг / Lars Klevberg

В ролях:
Кэтрин Прескотт, Тайлер Янг, Саманта Логан, Кинэн Трэйси, Присцилла Квинтана, Хавьер Ботет, Митч Пиледжи, Дави Сантос, Кэти Стивенс, Грэйс Забриски, Мэделин Петш, Эрика Курата-Превост, Шона Макдональд, Риз Беван-Джон


Сюжет фильма:
В руки к нелюдимой старшекласснице Бёрд, работающей в антикварном магазине, попадает винтажный фотоаппарат Polaroid. Девушка тут же делает снимок коллеги, а позже подруга вытаскивает её на вечеринку, где все тоже очень любят фотографироваться. В этот же вечер Бёрд узнаёт, что парень из магазина мёртв, а когда погибает и хозяйка вечеринки, Бёрд начинает догадываться, кто умрёт следующим. Дьявольское устройство убивает любого, кто окажется на фотографии, сделанной с его помощью, и теперь группа подростков должна разрешить загадку проклятия, пока фотоаппарат не прикончил их всех.

  • Дата мировой премьеры: 10 января 2019
  • Дата российской премьеры: 29 августа 2019, «Экспонента»
             
Качество видео: BDRemux 1080p
Формат: MKV
Видео: AVC, 1920x1080 (16:9), 34.6 Mbps, 24 fps, 0.696 bit/pixel
Аудио #1: AC3, 384 kbps, 6 ch, 48 kHz, Dub [iTunes]
Аудио #2: AC3, 192 kbps, 2 ch, 48 kHz, MVO [HDRezka Studio]
Аудио #3: DTS-HD MA, 3637 kbps, 6 ch, 48 kHz, Original [English]
Субтитры: Russian (forced, full), English (full)
Навигация по главам: есть (16)
 General 
Unique ID : 241332645089265262427859451535993206171 (0xB58EFA0DD4FCDDB18042EE2BED15F59B)
Complete name : Polaroid.2019.BDRemux.1080p.mkv
Format : Matroska
Format version : Version 4
File size : 23.9 GiB
Duration : 1 h 27 min
Overall bit rate mode : Variable
Overall bit rate : 38.8 Mb/s
Encoded date : UTC 2019-10-12 15:08:46
Writing application : mkvmerge v8.3.0 ('Over the Horizon') 64bit
Writing library : libebml v1.3.1 + libmatroska v1.4.2

Video
ID : 1
Format : AVC
Format/Info : Advanced Video Codec
Format profile : High@L4.1
Format settings : CABAC / 4 Ref Frames
Format settings, CABAC : Yes
Format settings, ReFrames : 4 frames
Codec ID : V_MPEG4/ISO/AVC
Duration : 1 h 27 min
Bit rate mode : Variable
Bit rate : 34.6 Mb/s
Maximum bit rate : 36.0 Mb/s
Width : 1 920 pixels
Height : 1 080 pixels
Display aspect ratio : 16:9
Frame rate mode : Constant
Frame rate : 24.000 FPS
Color space : YUV
Chroma subsampling : 4:2:0
Bit depth : 8 bits
Scan type : Progressive
Bits/(Pixel*Frame) : 0.696
Stream size : 21.3 GiB (89%)
Language : English
Default : Yes
Forced : No

Audio #1
ID : 2
Format : AC-3
Format/Info : Audio Coding 3
Commercial name : Dolby Digital
Codec ID : A_AC3
Duration : 1 h 27 min
Bit rate mode : Constant
Bit rate : 384 kb/s
Channel(s) : 6 channels
Channel layout : L R C LFE Ls Rs
Sampling rate : 48.0 kHz
Frame rate : 31.250 FPS (1536 SPF)
Bit depth : 16 bits
Compression mode : Lossy
Stream size : 241 MiB (1%)
Title : DUB (iTunes)
Language : Russian
Default : Yes
Forced : No

Audio #2
ID : 3
Format : AC-3
Format/Info : Audio Coding 3
Commercial name : Dolby Digital
Codec ID : A_AC3
Duration : 1 h 27 min
Bit rate mode : Constant
Bit rate : 192 kb/s
Channel(s) : 2 channels
Channel layout : L R
Sampling rate : 48.0 kHz
Frame rate : 31.250 FPS (1536 SPF)
Bit depth : 16 bits
Compression mode : Lossy
Stream size : 121 MiB (0%)
Title : MVO (HDRezka Studio)
Language : Russian
Default : No
Forced : No

Audio #3
ID : 4
Format : DTS XLL
Format/Info : Digital Theater Systems
Commercial name : DTS-HD Master Audio
Codec ID : A_DTS
Duration : 1 h 27 min
Bit rate mode : Variable
Bit rate : 3 637 kb/s
Channel(s) : 6 channels
Channel layout : C L R Ls Rs LFE
Sampling rate : 48.0 kHz
Frame rate : 93.750 FPS (512 SPF)
Bit depth : 24 bits
Compression mode : Lossless
Stream size : 2.24 GiB (9%)
Language : English
Default : No
Forced : No

Text #1
ID : 5
Format : UTF-8
Codec ID : S_TEXT/UTF8
Codec ID/Info : UTF-8 Plain Text
Duration : 1 h 1 min
Bit rate : 1 b/s
Count of elements : 13
Stream size : 704 Bytes (0%)
Title : Forced
Language : Russian
Default : Yes
Forced : Yes

Text #2
ID : 6
Format : UTF-8
Codec ID : S_TEXT/UTF8
Codec ID/Info : UTF-8 Plain Text
Duration : 1 h 23 min
Bit rate : 61 b/s
Count of elements : 695
Stream size : 37.4 KiB (0%)
Title : Full
Language : Russian
Default : No
Forced : No

Text #3
ID : 7
Format : UTF-8
Codec ID : S_TEXT/UTF8
Codec ID/Info : UTF-8 Plain Text
Duration : 1 h 25 min
Bit rate : 38 b/s
Count of elements : 943
Stream size : 24.2 KiB (0%)
Title : Full
Language : English
Default : No
Forced : No

Menu
00:00:00.000 : en:Chapter 01
00:07:03.000 : en:Chapter 02
00:12:44.708 : en:Chapter 03
00:20:39.791 : en:Chapter 04
00:27:07.833 : en:Chapter 05
00:30:51.125 : en:Chapter 06
00:34:17.500 : en:Chapter 07
00:39:37.250 : en:Chapter 08
00:44:51.875 : en:Chapter 09
00:48:46.166 : en:Chapter 10
00:53:24.166 : en:Chapter 11
00:59:33.583 : en:Chapter 12
01:07:28.250 : en:Chapter 13
01:12:48.708 : en:Chapter 14
01:17:49.541 : en:Chapter 15
01:23:02.125 : en:Chapter 16


pic pic pic pic pic

Этот торрент недоступен для скачивания без регистрации, однако доступен по публичной magnet-ссылке (источники с публичных трекеров). Перед использованием ссылки прочтите, пожалуйста Пользовательское соглашение, а также как можно дольше оставайтесь на раздаче! Для того, чтобы скачать сам торрент-файл (который видит больше источников), а также для того, чтобы поблагодарить релизера, вам необходимо зарегистрироваться. Если регистрироваться лень - вы можете также попробовать скачать релиз по нашим партнерским ссылкам ниже. Кроме того, зарегистрированным пользователям не показывается всплывающая реклама при скачивании.

[underver.se].t146975.torrent
Трекер: Зарегистрирован   [ 12.10.2019 17:26 ]  

Статус: проверено (by 90ytr90 at 12.10.2019 18:33)
Поблагодарили: пока никто не поблагодарил...
Тип торрента: публичный - доступные источники с открытых трекеров: 
Размер: 23,87 GB (занимает 5,45 DVDR, для записи нужно 6 болванок DVDR/RW)
 
 
Похожие темы
Форум Тема Автор Торрент Отв. Посл. сооб.
Зарубежное кино [DVDRip, Low-Res HDRip, и т.д.] Пункт назначения: Смайл / Polaroid (Ларс Клевберг / Lars Klevberg) [2019 г., ужасы, триллер, драма, BDRip] MVO (HDRezka Studio) + Original (Eng) 90ytr90
146 | 3

0 | 359

39

21.05.2019 18:07

Зарубежное кино [DVDRip, Low-Res HDRip, и т.д.] Пункт назначения 5 / Final Destination 5 (Стивен Куэйл / Steven Quale) [2011 г., ужасы, триллер, HDRip] AVO (Гаврилов) 90ytr90
0 | 1

0 | 895

8

09.01.2015 14:50

Зарубежное кино [DVDRip, Low-Res HDRip, и т.д.] Пункт назначения: Смайл / Полароид / Polaroid (Ларс Клевберг / Lars Klevberg) [2019 г., ужасы, триллер, драма, BDRip] Dub (iTunes) 90ytr90
1 | 0

0 | 168

7

12.10.2019 01:42

Зарубежное кино [DVDRip, Low-Res HDRip, и т.д.] Пункт назначения: Смайл / Полароид / Polaroid (Ларс Клевберг / Lars Klevberg) [2019 г., ужасы, триллер, драма, BDRip-AVC] Dub (iTunes) + MVO (HDRezka Studio) + Original (Eng) + Sub (Rus, Eng) 90ytr90
203 | 10

0 | 231

12

12.10.2019 01:44

T Зарубежное кино [HDDVDRip / BDRip / WEB-DL / HDTV 1080/720р] Пункт назначения: Смайл / Polaroid (Ларс Клевберг / Lars Klevberg) [2019 г., ужасы, триллер, драма, BDRip 1080p] MVO (HDRezka Studio) + Original (Eng) 90ytr90
250 | 6

0 | 359

19

21.05.2019 18:06

Зарубежное кино [HDDVDRip / BDRip / WEB-DL / HDTV 1080/720р] Пункт назначения: Смайл / Полароид / Polaroid (Ларс Клевберг / Lars Klevberg) [2019 г., ужасы, триллер, драма, BDRip 1080p] Dub (iTunes) + MVO (HDRezka Studio) + Original (Eng) 90ytr90
1399 | 92

0 | 319

34

12.10.2019 01:37

Зарубежное кино [HDDVDRip / BDRip / WEB-DL / HDTV 1080/720р] Пункт назначения: Смайл / Полароид / Polaroid (Ларс Клевберг / Lars Klevberg) [2019 г., ужасы, триллер, драма, BDRip 720p] Dub (iTunes) + MVO (HDRezka Studio) + Original (Eng) 90ytr90
449 | 24

0 | 201

10

12.10.2019 01:39

Архив (художественные фильмы) Пункт назначения 3 / Final Destination 3 (Джеймс Вонг) [2006 г., ужасы, драма, триллер, детектив, HDTVRip] GUree
0 | 0

4 | 2127

8

31.01.2018 13:41

Архив (художественные фильмы) Пункт назначения 2 / Final Destination 2 (Дэвид Р. Эллис) [2003 г., мистика, BDRip] GUree
0 | 0

9 | 11053

3

31.01.2018 13:41

Архив (художественные фильмы) Пункт назначения / Final Destination (Джеймс Вонг) [2000 г., триллер, BDRip] GUree
0 | 0

3 | 1710

1

31.01.2018 13:41


Яндекс.Метрика powered by Sphinx


В Н И М А Н И Е
Сайт не распространяет и не хранит электронные версии произведений, а лишь бесплатно и без коммерческой выгоды (не требуя взамен платы,
SMS и т.д.) предоставляет доступ к создаваемому пользователями каталогу ссылок на торрент-файлы, которые содержат только списки хеш-сумм.
Убедительная просьба с жалобами обращаться напрямую к пользователю, разместившему торрент файл.

Вверх