Loading...
Error

(Шансон) Валерий Шунт - Шансон. Вольная песня (2005) [FLAC (Image+.CUE), Lossless]

Статистика раздачи
Размер:  568 MB   |    Зарегистрирован:  1 год 3 месяца   |    Скачан:  3 раза

Полного источника не было: 4 месяца 3 дня

Сидов:  0  |  0 KB/s  ]   Личеров:  0  |  0 KB/s  ]

* - сиды/пиры с внешних источников

   
 
Автор Сообщение

Inspektor_49 Пол:Муж

05-Ноя-2019 11:44

Валерий Шунт - Шансон. Вольная песня


Жанр: Шансон
Носитель: CD
Страна-производитель диска (релиза): Россия
Год издания: 2005
Издатель (лейбл): Max Energy
Номер по каталогу: S4699
Аудиокодек: FLAC
Тип рипа: image+.cue
Битрейт аудио: lossless
Продолжительность: 01:19:29
Наличие сканов в содержимом раздачи: да
01. Ночь (03:07)
02. Всё как-то не по-русски (03:33)
03. Весёленькая поездка (04:57)
04. Провокация (03:04)
05. Авария (04:20)
06. Кому на руси жить хорошо? (02:00)
07. Банный день (03:28)
08. Студентка (03:34)
09. Ресторанчик (03:52)
10. Пропащая судьба (03:48)
11. Лохотрончик (02:57)
12. Играла музыка (03:18)
13. Мужская история (фломики) (03:36)
14. Полигамия (03:19)
15. Шалманчик (02:43)
16. Кресты (04:39)
17. Жизнь босяцкая (02:41)
18. Закажите мне безумство (01:57)
19. Заочницы (04:30)
20. Не грусти, арестант (04:16)
21. Греческий профиль (03:49)
22. Мальчики жиганчики (03:16)
23. Взял кредит! Не отдавай! (02:55)
 
Exact Audio Copy V1.0 beta 3 from 29. August 2011

Отчёт EAC об извлечении, выполненном 16. августа 2014, 13:21

Валерий Шунт / Шансон. Вольная песня

Дисковод: ASUS DRW-1814BLT Adapter: 1 ID: 1

Режим чтения : Достоверность
Использование точного потока : Да
Отключение кэша аудио : Да
Использование указателей C2 : Нет

Коррекция смещения при чтении : 6
Способность читать области Lead-in и Lead-out : Нет
Заполнение пропущенных сэмплов тишиной : Да
Удаление блоков с тишиной в начале и конце : Нет
При вычислениях CRC использовались нулевые сэмплы : Да
Интерфейс : Встроенный Win32-интерфейс для Win NT/2000

Выходной формат : Внутренние WAV-операции
Формат сэмплов : 44.100 Гц; 16 бит; стерео

TOC извлечённого CD

Трек | Старт | Длительность | Начальный сектор | Конечный сектор
---------------------------------------------------------------------
1 | 0:00.00 | 3:06.66 | 0 | 14015
2 | 3:06.66 | 3:32.18 | 14016 | 29933
3 | 6:39.09 | 4:56.21 | 29934 | 52154
4 | 11:35.30 | 3:03.31 | 52155 | 65910
5 | 14:38.61 | 4:19.23 | 65911 | 85358
6 | 18:58.09 | 2:00.00 | 85359 | 94358
7 | 20:58.09 | 3:27.15 | 94359 | 109898
8 | 24:25.24 | 3:33.01 | 109899 | 125874
9 | 27:58.25 | 3:51.74 | 125875 | 143273
10 | 31:50.24 | 3:47.23 | 143274 | 160321
11 | 35:37.47 | 2:56.10 | 160322 | 173531
12 | 38:33.57 | 3:17.70 | 173532 | 188376
13 | 41:51.52 | 3:35.73 | 188377 | 204574
14 | 45:27.50 | 3:18.36 | 204575 | 219460
15 | 48:46.11 | 2:42.14 | 219461 | 231624
16 | 51:28.25 | 4:38.54 | 231625 | 252528
17 | 56:07.04 | 2:40.50 | 252529 | 264578
18 | 58:47.54 | 1:56.43 | 264579 | 273321
19 | 60:44.22 | 4:29.62 | 273322 | 293558
20 | 65:14.09 | 4:15.34 | 293559 | 312717
21 | 69:29.43 | 3:48.20 | 312718 | 329837
22 | 73:17.63 | 3:15.58 | 329838 | 344520
23 | 76:33.46 | 2:54.73 | 344521 | 357643

Характеристики диапазона извлечения и сообщения об ошибках

Выбранный диапазон

Имя файла C:\vlad victorovich\Various Artists - Вне закона - выпуск 000001 (Блатные баллады и лирика)\Валерий Шунт - Шансон. Вольная песня.wav

Пиковый уровень 96.6 %
Скорость извлечения 8.2 X
Качество диапазона 100.0 %
CRC теста A206EA87
CRC копии A206EA87
Копирование... OK

Ошибок не произошло

AccurateRip: сводка

Трек 1 отсутствует в базе данных
Трек 2 отсутствует в базе данных
Трек 3 отсутствует в базе данных
Трек 4 отсутствует в базе данных
Трек 5 отсутствует в базе данных
Трек 6 отсутствует в базе данных
Трек 7 отсутствует в базе данных
Трек 8 отсутствует в базе данных
Трек 9 отсутствует в базе данных
Трек 10 отсутствует в базе данных
Трек 11 отсутствует в базе данных
Трек 12 отсутствует в базе данных
Трек 13 отсутствует в базе данных
Трек 14 отсутствует в базе данных
Трек 15 отсутствует в базе данных
Трек 16 отсутствует в базе данных
Трек 17 отсутствует в базе данных
Трек 18 отсутствует в базе данных
Трек 19 отсутствует в базе данных
Трек 20 отсутствует в базе данных
Трек 21 отсутствует в базе данных
Трек 22 отсутствует в базе данных
Трек 23 отсутствует в базе данных

Ни одного трека нет в базе AccurateRip

Конец отчёта

==== Контрольная сумма отчёта D6EFDF71C9AFEE518D82A9C8489B9A3DE8E82C115A68904C52A03934F3B9F2B0 ====

 
AUDIOCHECKER v2.0 beta (build 457) - by Dester - opdester@freemail.hu
~~~~~~~~~~~~~~~~~~~~~~~~~~~~~~~~~~
-=== НЕ РЕДАКТИРУЙТЕ ЭТОТ ФАЙЛ! ===-

Путь: ...\2005 - Валерий Шунт - Шансон. Вольная песня

1 -=- Валерий Шунт - Шансон. Вольная песня.wav -=- CDDA (100%)

211199028

Диск из личной коллекции!
Рип снят в режиме Test&Copy + сканы обложек и диска 600 dpi !!!
Приятного Всем прослушивания!

Этот торрент недоступен для скачивания без регистрации, однако доступен по публичной magnet-ссылке (источники с публичных трекеров). Перед использованием ссылки прочтите, пожалуйста Пользовательское соглашение, а также как можно дольше оставайтесь на раздаче! Для того, чтобы скачать сам торрент-файл (который видит больше источников), а также для того, чтобы поблагодарить релизера, вам необходимо зарегистрироваться. Если регистрироваться лень - вы можете также попробовать скачать релиз по нашим партнерским ссылкам ниже. Кроме того, зарегистрированным пользователям не показывается всплывающая реклама при скачивании.

[underver.se].t149804.torrent
Трекер: Зарегистрирован   [ 05.11.2019 11:44 ]  

Статус: проверено (by Бишеп at 05.11.2019 13:16)
Поблагодарили: пока никто не поблагодарил...
Тип торрента: публичный - доступные источники с открытых трекеров: 
Размер: 568 MB (занимает 0,13 DVDR, для записи нужно 1 болванка DVDR/RW)
 
 
Похожие темы
Форум Тема Автор Торрент Отв. Посл. сооб.
Шансон (Шансон) Виктор Неплюев - 2011 - Дорожные песни. Без Ухабов и Проколов, MP3, 320 kbps Bugor
0 | 0

0 | 1903

7

11.09.2012 17:25

Шансон (Шансон) Вадим Жогин - По дороге - 2005, MP3, 320 kbps Bugor
1 | 0

0 | 1676

12

11.09.2012 17:37

Шансон (Шансон) Владимир Асмолов - Дискография (Серия Русский Шансон) (1986-2008) [MP3, 320 kbps] tenax_555
3 | 0

1 | 2351

32

09.04.2014 19:01

# Шансон (Шансон) ВИА Орион - Глухари (1972) MP3, [MP3, 128-320 kbps CBR] Magnat
1 | 0

1 | 726

20

03.06.2019 16:29

# Шансон (Шансон) Виа Легенда - Не бросай меня (1990) [MP3, 320 kbps CBR] Magnat
0 | 1

1 | 562

5

03.06.2019 16:33

Шансон (Шансон) Воровайки - Бриллиантики (2018) [MP3, 320 kbps CBR] Magnat
1 | 0

0 | 597

10

02.06.2019 13:01

Шансон (Шансон) Владимир Ждамиров - Золотой альбом (2019) [MP3, 320 kbps CBR] 90ytr90
10 | 0

0 | 1986

13

21.08.2019 19:13

Шансон (Шансон) Владимир Курский - Остыла душа (2018) [MP3, 320 kbps CBR] Renesans
1 | 1

0 | 198

2

27.12.2020 09:06

Шансон (Шансон) Владимир Курский - Чёрная кошка (2017) [MP3, 320 kbps CBR] Renesans
1 | 0

0 | 231

4

27.12.2020 05:51

Шансон (Шансон) Владимир Курский - Я не тот (2019) [MP3, 320 kbps CBR] Renesans
3 | 0

0 | 214

2

27.12.2020 05:05


Яндекс.Метрика powered by Sphinx


В Н И М А Н И Е
Сайт не распространяет и не хранит электронные версии произведений, а лишь бесплатно и без коммерческой выгоды (не требуя взамен платы,
SMS и т.д.) предоставляет доступ к создаваемому пользователями каталогу ссылок на торрент-файлы, которые содержат только списки хеш-сумм.
Убедительная просьба с жалобами обращаться напрямую к пользователю, разместившему торрент файл.

Вверх