Loading...
Error

Udemy - React + Redux - Профессиональная Разработка [2019 г., программирование, PCRec]

Статистика раздачи
Размер:  9,88 GB   |    Зарегистрирован:  4 дня   |    Скачан:  4 раза

Полного источника не было: 2 дня 11 часов

Сидов:  0  |  0 KB/s  ]   Личеров:  1  |  0 KB/s  ]

* - сиды/пиры с внешних источников

   
 
Автор Сообщение

Паукан Пол:Муж

08-Ноя-2019 15:17

Udemy - React + Redux - Профессиональная Разработка (2019) PCRec [H.264/720p-LQ]

Автор (режиссер): Юрий Бура
Производство: Udemy
Жанр: Программирование, React, Redux

Описание:
Фокус этого курса - практическая разработка приложений на React. Это означает, что мы рассмотрим не только эффективное использование самого React, но и целую экосистему инструментов и библиотек, которые необходимы для создания полноценного UI приложения.

Продолжительность: 19:54:40
Качество видео: PCRec

Видео: AVC/H.264, 1280x720, ~562-2969 Kbps
Аудио: AAC, 2 ch, 127-128 Kbps
  
Общее
Полное имя : .10 Redux\110 Действия с параметрами.mp4
Формат : MPEG-4
Профиль формата : Base Media
Идентификатор кодека : isom (isom/iso2/avc1/mp41)
Размер файла : 35,6 Мбайт
Продолжительность : 3 м. 42 с.
Общий поток : 1343 Кбит/сек
Программа кодирования : Lavf58.12.100
IsTruncated : Yes

Видео
Идентификатор : 1
Формат : AVC
Формат/Информация : Advanced Video Codec
Профиль формата : Main@L3.1
Настройки формата : CABAC / 4 Ref Frames
Параметр CABAC формата : Да
Параметр RefFrames формата : 4 кадра
Параметр GOP формата : M=4, N=60
Идентификатор кодека : avc1
Идентификатор кодека/Информация : Advanced Video Coding
Продолжительность : 3 м. 42 с.
Битрейт : 1206 Кбит/сек
Номинальный битрейт : 3000 Кбит/сек
Ширина : 1280 пикселей
Высота : 720 пикселей
Соотношение сторон : 16:9
Режим частоты кадров : Постоянный
Частота кадров : 30,000 кадров/сек
Цветовое пространство : YUV
Субдискретизация насыщенности : 4:2:0
Битовая глубина : 8 бит
Тип развёртки : Прогрессивная
Бит/(Пиксели*Кадры) : 0.044
Размер потока : 32,0 Мбайт (90%)
Библиотека кодирования : x264 core 148
Настройки программы : cabac=1 / ref=3 / deblock=1:-1:-1 / analyse=0x1:0x111 / me=umh / subme=6 / psy=1 / psy_rd=1.00:0.15 / mixed_ref=1 / me_range=16 / chroma_me=1 / trellis=1 / 8x8dct=0 / cqm=0 / deadzone=21,11 / fast_pskip=1 / chroma_qp_offset=-3 / threads=22 / lookahead_threads=3 / sliced_threads=0 / nr=0 / decimate=1 / interlaced=0 / bluray_compat=0 / constrained_intra=0 / bframes=3 / b_pyramid=2 / b_adapt=1 / b_bias=0 / direct=1 / weightb=1 / open_gop=0 / weightp=2 / keyint=60 / keyint_min=6 / scenecut=0 / intra_refresh=0 / rc_lookahead=60 / rc=cbr / mbtree=1 / bitrate=3000 / ratetol=1.0 / qcomp=0.60 / qpmin=0 / qpmax=69 / qpstep=4 / vbv_maxrate=3000 / vbv_bufsize=6000 / nal_hrd=none / filler=0 / ip_ratio=1.40 / aq=1:1.00
Codec configuration box : avcC

Аудио
Идентификатор : 2
Формат : AAC LC
Формат/Информация : Advanced Audio Codec Low Complexity
Идентификатор кодека : mp4a-40-2
Продолжительность : 3 м. 42 с.
Вид битрейта : Постоянный
Битрейт : 128 Кбит/сек
Каналы : 2 канала
Channel layout : L R
Частота : 48,0 КГц
Частота кадров : 46,875 кадров/сек (1024 SPF)
Метод сжатия : С потерями
Размер потока : 3,40 Мбайт (10%)
Default : Да
AlternateGroup/String : 1
В раздаче имеются архивы! В них содержится дополнительные материалы.
23.03.2019 торрент файл обновлен
- добавлены 2 новых раздела ("11 Разработка Redux приложения" и "12 WebPack и Babel")
- обновлен архив с исходниками ("pro-react-redux-master.zip")

04.09.2019 торрент файл обновлен
- переименована папка "12 WebPack и Babel" на "12 Сборка React приложений - Babel"
- добавлены все уроки из раздела "12 Сборка React приложений - Babel"
- добавлен новый раздел "13 Сборка React приложений - WebPack"
- обновлен архив с исходниками ("pro-react-redux-master.zip")

07.11.2019 торрент файл обновлен
- начиная с 147 видео была исправлена нумерация (был пропущен 148 номер)
- добавлены новые уроки из раздела "13 Сборка React приложений - WebPack" (с номерами 158-162)
- обновлен архив с исходниками ("pro-react-redux-master.zip")

Скриншоты:

Этот торрент недоступен для скачивания без регистрации, однако доступен по публичной magnet-ссылке (источники с публичных трекеров). Перед использованием ссылки прочтите, пожалуйста Пользовательское соглашение, а также как можно дольше оставайтесь на раздаче! Для того, чтобы скачать сам торрент-файл (который видит больше источников), а также для того, чтобы поблагодарить релизера, вам необходимо зарегистрироваться. Если регистрироваться лень - вы можете также попробовать скачать релиз по нашим партнерским ссылкам ниже. Кроме того, зарегистрированным пользователям не показывается всплывающая реклама при скачивании.

[underver.se].t150180.torrent
Трекер: Зарегистрирован   [ 08.11.2019 15:17 ]  

Статус: проверено (by Паукан at 08.11.2019 15:17)
Поблагодарили: пока никто не поблагодарил...
Тип торрента: публичный - доступные источники с открытых трекеров: 
Размер: 9,88 GB (занимает 2,26 DVDR, для записи нужно 3 болванки DVDR/RW)
 
 
Похожие темы
Форум Тема Автор Торрент Отв. Посл. сооб.
Компьютерные видеоуроки Udemy - React + Redux - Профессиональная Разработка [2018 г., программирование, PCRec] Паукан
50 | 5

1 | 504

24

21.02.2019 19:31

Компьютерные видеоуроки Udemy - React + Redux - Профессиональная Разработка [2019 г., программирование, PCRec] Паукан
58 | 3

0 | 252

9

04.09.2019 15:34


Яндекс.Метрика powered by Sphinx


В Н И М А Н И Е
Сайт не распространяет и не хранит электронные версии произведений, а лишь бесплатно и без коммерческой выгоды (не требуя взамен платы,
SMS и т.д.) предоставляет доступ к создаваемому пользователями каталогу ссылок на торрент-файлы, которые содержат только списки хеш-сумм.
Убедительная просьба с жалобами обращаться напрямую к пользователю, разместившему торрент файл.

Вверх