Loading...
Error

Николай Караченцов. Я тебя никогда не забуду... (Алексей Киселев) [2019 г., документальный, биография, кинематограф, HDTV 1080i]

Статистика раздачи
Размер:  2,83 GB   |    Зарегистрирован:  4 дня   |    Скачан:  2 раза

Полного источника не было: 1 день 7 часов

Сидов:  0  |  0 KB/s  ]   Личеров:  0  |  0 KB/s  ]

* - сиды/пиры с внешних источников

   
 
Автор Сообщение

ARI71 Пол:Муж

08-Ноя-2019 15:18

Николай Караченцов. Я тебя никогда не забуду...


Год выпуска: 2019
Жанр: документальный, биография, кинематограф
Страна: Россия ТК «Останкино»
Режиссер: Алексей Киселев
В ролях: Рудольф Фурманов, Игорь Золотовицкий, Валерий Морозов, Алла Сурикова, Александр Иншаков
Сюжет фильма:
Николай Караченцов был человеком уникальной судьбы. Один из немногих актеров, которого любили все: зрители за потрясающие фильмы и трюки без помощи каскадеров, театралы за фантастические спектакли в Ленкоме. Он был невероятно популярен. Николай Петрович как-то сказал, что прекрасно осознает, что не каждому человеку так везет в жизни: карьера, о которой другие могут только мечтать, семья… Все изменилось резко, неожиданно, в одну ночь… Авария на Мичуринском проспекте разделила его жизнь на две половины.
Качество видео: HDTV 1080i

Продолжительность: 00:48:57
Формат: TS
Видео: MPEG-4 AVC, 1920x1080, 7632 kbps
Аудио: русский, MP2 2.0, 224 kbps

Код:

Общее
Идентификатор : 1 (0x1)
Полное имя : D:\Nikolaj.Karachencov.Ja.tebja.nikogda.ne.zabudu.2019.HDTV.(1080i).ExKinoRay.ts
Формат : MPEG-TS
Размер файла : 2,83 Гбайт
Продолжительность : 48 м. 57 с.
Режим общего битрейта : Переменный
Общий поток : 8267 Кбит/сек

Видео
Идентификатор : 256 (0x100)
Идентификатор меню : 1 (0x1)
Формат : AVC
Формат/Информация : Advanced Video Codec
Профиль формата : High@L4
Настройки формата : CABAC / 3 Ref Frames
Параметр CABAC формата : Да
Параметр RefFrames формата : 3 кадра
Идентификатор кодека : 27
Продолжительность : 48 м. 57 с.
Битрейт : 7632 Кбит/сек
Ширина : 1920 пикселей
Высота : 1080 пикселей
Соотношение сторон : 16:9
Частота кадров : 25,000 кадров/сек
Стандарт вещания : Component
Цветовое пространство : YUV
Субдискретизация насыщенности : 4:2:0
Битовая глубина : 8 бит
Тип развёртки : Чересстрочная
Метод сохранения типа развёртки : Раздельные поля
Порядок развёртки : Верхнее поле первое
Бит/(Пиксели*Кадры) : 0.147
Размер потока : 2,61 Гбайт (92%)
Цветовой диапазон : Limited
Основные цвета : BT.709
Характеристики трансфера : BT.709
Коэффициенты матрицы : BT.709

Аудио
Идентификатор : 257 (0x101)
Идентификатор меню : 1 (0x1)
Формат : MPEG Audio
Версия формата : Version 1
Профиль формата : Layer 2
Идентификатор кодека : 3
Продолжительность : 48 м. 57 с.
Вид битрейта : Постоянный
Битрейт : 224 Кбит/сек
Каналы : 2 канала
Частота : 48,0 КГц
Частота кадров : 41,667 кадра/сек (1152 SPF)
Метод сжатия : С потерями
Задержка видео : -56 мс.
Размер потока : 78,4 Мбайт (3%)
picpicpicpic
Для увеличения картинки щелкните мышкой по превью

Этот торрент недоступен для скачивания без регистрации, однако доступен по публичной magnet-ссылке (источники с публичных трекеров). Перед использованием ссылки прочтите, пожалуйста Пользовательское соглашение, а также как можно дольше оставайтесь на раздаче! Для того, чтобы скачать сам торрент-файл (который видит больше источников), а также для того, чтобы поблагодарить релизера, вам необходимо зарегистрироваться. Если регистрироваться лень - вы можете также попробовать скачать релиз по нашим партнерским ссылкам ниже. Кроме того, зарегистрированным пользователям не показывается всплывающая реклама при скачивании.

[underver.se].t150181.torrent
Трекер: Зарегистрирован   [ 08.11.2019 15:18 ]  

Статус: проверено (by ARI71 at 08.11.2019 15:19)
Поблагодарили: пока никто не поблагодарил...
Тип торрента: публичный - доступные источники с открытых трекеров: 
Размер: 2,83 GB (занимает 0,65 DVDR, для записи нужно 1 болванка DVDR/RW)
 
 
Похожие темы
Форум Тема Автор Торрент Отв. Посл. сооб.
Фантастика, фэнтези Николай Капитонов - Цикл «Наёмник» [2 книги] [2016-2017 г., боевая фантастика, попаданцы, FB2] RUS Паукан
9 | 0

0 | 572

17

17.03.2018 20:43

Гуманитарные науки, история, публицистика Николай Караченцов - Я не ушел [2017 г., биографии и мемуары, кинематограф / театр, PDF] RUS Паукан
2 | 0

0 | 226

5

27.10.2018 20:53


Яндекс.Метрика powered by Sphinx


В Н И М А Н И Е
Сайт не распространяет и не хранит электронные версии произведений, а лишь бесплатно и без коммерческой выгоды (не требуя взамен платы,
SMS и т.д.) предоставляет доступ к создаваемому пользователями каталогу ссылок на торрент-файлы, которые содержат только списки хеш-сумм.
Убедительная просьба с жалобами обращаться напрямую к пользователю, разместившему торрент файл.

Вверх