Loading...
Error

Владилен Минин - Angular 8 с нуля до профессионала. Полное руководство [2019 г., программирование, PCRec]

Статистика раздачи
Размер:  7,7 GB   |    Зарегистрирован:  4 дня   |    Скачан:  4 раза

Полного источника не было: 4 часа

Сидов:  0  |  0 KB/s  ]   Личеров:  0  |  0 KB/s  ]

* - сиды/пиры с внешних источников

   
 
Автор Сообщение

Паукан Пол:Муж

08-Ноя-2019 15:21

Владилен Минин - Angular 8 с нуля до профессионала. Полное руководство (2019) PCRec [H.264/720p-LQ]

Автор (режиссер): Владилен Минин
Производство: Udemy
Жанр: Программирование, JavaScript, TypeScript, Angular

Описание:
Данный курс не требует никаких предварительных знаний по Angular или другим фреймворкам. Из предварительных знаний только основы. Остальное в курсе рассказывается с самого нуля, включая TypeScript и RxJS.

Курс содержит в себе 14 часов обучающих материалов, которые последовательно и очень подробно научат вас самым актуальным знаниям по прекрасной Frontend технологии Angular от компании Google.

Продолжительность: 17:19:25
Качество видео: PCRec

Видео: AVC/H.264, 1280x720, ~522-2609 Kbps
Аудио: AAC, 2 ch, 127-128 Kbps
  
Общее
Полное имя : .\11. Дополнительные возможности\3. SEO. Работа с тегами.mp4
Формат : MPEG-4
Профиль формата : Base Media
Идентификатор кодека : isom (isom/iso2/avc1/mp41)
Размер файла : 36,9 Мбайт
Продолжительность : 4 м. 1 с.
Общий поток : 1282 Кбит/сек
Программа кодирования : Lavf58.12.100

Видео
Идентификатор : 1
Формат : AVC
Формат/Информация : Advanced Video Codec
Профиль формата : Main@L3.1
Настройки формата : CABAC / 4 Ref Frames
Параметр CABAC формата : Да
Параметр RefFrames формата : 4 кадра
Идентификатор кодека : avc1
Идентификатор кодека/Информация : Advanced Video Coding
Продолжительность : 4 м. 1 с.
Битрейт : 1145 Кбит/сек
Номинальный битрейт : 3000 Кбит/сек
Ширина : 1280 пикселей
Высота : 720 пикселей
Соотношение сторон : 16:9
Режим частоты кадров : Постоянный
Частота кадров : 30,000 кадров/сек
Цветовое пространство : YUV
Субдискретизация насыщенности : 4:2:0
Битовая глубина : 8 бит
Тип развёртки : Прогрессивная
Бит/(Пиксели*Кадры) : 0.041
Размер потока : 33,0 Мбайт (89%)
Библиотека кодирования : x264 core 148
Настройки программы : cabac=1 / ref=3 / deblock=1:-1:-1 / analyse=0x1:0x111 / me=umh / subme=6 / psy=1 / psy_rd=1.00:0.15 / mixed_ref=1 / me_range=16 / chroma_me=1 / trellis=1 / 8x8dct=0 / cqm=0 / deadzone=21,11 / fast_pskip=1 / chroma_qp_offset=-3 / threads=22 / lookahead_threads=3 / sliced_threads=0 / nr=0 / decimate=1 / interlaced=0 / bluray_compat=0 / constrained_intra=0 / bframes=3 / b_pyramid=2 / b_adapt=1 / b_bias=0 / direct=1 / weightb=1 / open_gop=0 / weightp=2 / keyint=60 / keyint_min=6 / scenecut=0 / intra_refresh=0 / rc_lookahead=60 / rc=cbr / mbtree=1 / bitrate=3000 / ratetol=1.0 / qcomp=0.60 / qpmin=0 / qpmax=69 / qpstep=4 / vbv_maxrate=3000 / vbv_bufsize=6000 / nal_hrd=none / filler=0 / ip_ratio=1.40 / aq=1:1.00
Codec configuration box : avcC

Аудио
Идентификатор : 2
Формат : AAC LC
Формат/Информация : Advanced Audio Codec Low Complexity
Идентификатор кодека : mp4a-40-2
Продолжительность : 4 м. 1 с.
Вид битрейта : Постоянный
Битрейт : 128 Кбит/сек
Каналы : 2 канала
ChannelLayout : L R
Частота : 44,1 КГц
Частота кадров : 43,066 кадра/сек (1024 SPF)
Метод сжатия : С потерями
Размер потока : 3,69 Мбайт (10%)
Default : Да
AlternateGroup/String : 1
В раздаче имеются архивы! В них содержится дополнительные материалы.
07.11.2019 торрент файл обновлен
- добавлен раздел "12. Unit тестирование"
- добавлен раздел "13. Интеграционное тестирование"
- добавлен раздел "14. Анимации"

Скриншоты:

Этот торрент недоступен для скачивания без регистрации, однако доступен по публичной magnet-ссылке (источники с публичных трекеров). Перед использованием ссылки прочтите, пожалуйста Пользовательское соглашение, а также как можно дольше оставайтесь на раздаче! Для того, чтобы скачать сам торрент-файл (который видит больше источников), а также для того, чтобы поблагодарить релизера, вам необходимо зарегистрироваться. Если регистрироваться лень - вы можете также попробовать скачать релиз по нашим партнерским ссылкам ниже. Кроме того, зарегистрированным пользователям не показывается всплывающая реклама при скачивании.

[underver.se].t150182.torrent
Трекер: Зарегистрирован   [ 08.11.2019 15:21 ]  

Статус: проверено (by Паукан at 08.11.2019 15:21)
Поблагодарили: пока никто не поблагодарил...
Тип торрента: публичный - доступные источники с открытых трекеров: 
Размер: 7,7 GB (занимает 1,76 DVDR, для записи нужно 2 болванки DVDR/RW)
 
 
Похожие темы
Форум Тема Автор Торрент Отв. Посл. сооб.
Компьютерные видеоуроки Владилен Минин - React JS с Нуля до Профи. Полное руководство [2019 г., программирование, PCRec] Паукан
62 | 2

0 | 218

8

08.11.2019 17:11


Яндекс.Метрика powered by Sphinx


В Н И М А Н И Е
Сайт не распространяет и не хранит электронные версии произведений, а лишь бесплатно и без коммерческой выгоды (не требуя взамен платы,
SMS и т.д.) предоставляет доступ к создаваемому пользователями каталогу ссылок на торрент-файлы, которые содержат только списки хеш-сумм.
Убедительная просьба с жалобами обращаться напрямую к пользователю, разместившему торрент файл.

Вверх