Loading...
Error

(Tech House, Deep House, Techno, Minimal) VA - Tale Of Us - Renaissance: The Mix Collection (2CD) (2013) [FLAC (Image+.Cue), Lossless]

Статистика раздачи
Размер:  839 MB   |    Зарегистрирован:  4 дня   |    Скачан:  0 раз

Полного источника не было: Никогда

Сидов:  0  |  0 KB/s  ]   Личеров:  0  |  0 KB/s  ]

* - сиды/пиры с внешних источников

   
 
Автор Сообщение

Бишеп Пол:Муж

08-Ноя-2019 15:30

VA - Tale Of Us ‎– Renaissance: The Mix Collection

Жанр: Tech House, Deep House, Techno, Minimal
Год выпуска: 2013
Носитель: CD
Производитель диска: Renaissance - RENEW03CD
Аудиокодек: FLAC
Тип рипа: Image+.Cue
Битрейт аудио: lossless
Продолжительность: 02:13:09

Треклист:
01. Gran Cavaliere - Dancing Alma (03:38)
02. Mathew Jonson - When Love Feels Like Crying (04:41)
03. Tale of Us & Clockwork feat. The/Das - Life And Death (04:18)
04. Kollektiv Turmstrasse - Ordinary (Lake People’s Circle Motive Remix) (03:54)
05. Kollektiv Turmstrasse - Heimat (Robag's Turmkolle Rekksmow) (03:54)
06. Roman Flьgel - Cookies Dust (03:06)
07. Scuba - Hardbody (04:41)
08. Gold Panda - Marriage (Baths Remix) (03:00)
09. Delta Funktionen - Nebula (02:35)
10. Sei A - Frozen Flower (Midland Remix) (03:06)
11. Wareika - Burnin’ (04:16)
12. Simian Mobile Disco - Cerulean (04:21)
13. FaltyDL - Straight & Arrow (Four Tet Remix) (05:06)
14. Closer Musik - Departure (06:55)
15. Tale Of Us - Obscure Promises (06:00)

 Exact Audio Copy V1.3 from 2. September 2016 

Отчёт EAC об извлечении, выполненном 7. августа 2019, 4:43

Tale Of Us / Renaissance - The Mix Collection CD-1

Дисковод: PIONEER DVD-RW DVR-109 Adapter: 3 ID: 0

Режим чтения : Достоверность
Использование точного потока : Да
Отключение кэша аудио : Да
Использование указателей C2 : Нет

Коррекция смещения при чтении : 48
Способность читать области Lead-in и Lead-out : Нет
Заполнение пропущенных сэмплов тишиной : Да
Удаление блоков с тишиной в начале и конце : Нет
При вычислениях CRC использовались нулевые сэмплы : Да
Интерфейс : Установленный внешний ASPI-интерфейс

Выходной формат : Пользовательский кодировщик
Выбранный битрейт : 128 kBit/s
Качество : Высокий
Добавление ID3-тега : Нет
Утилита сжатия : C:\Program Files\Exact Audio Copy\FLAC\FLAC.EXE
Дополнительные параметры : -V -8 -T "Genre=%genre%" -T "Artist=%artist%" -T "Title=%title%" -T "Album=%albumtitle%" -T "Date=%year%" -T "Tracknumber=%tracknr%" -T "Comment=%comment%" %source%

TOC извлечённого CD

Трек | Старт | Длительность | Начальный сектор | Конечный сектор
---------------------------------------------------------------------
1 | 0:00.00 | 3:38.62 | 0 | 16411
2 | 3:38.62 | 4:41.70 | 16412 | 37556
3 | 8:20.57 | 4:18.14 | 37557 | 56920
4 | 12:38.71 | 3:54.38 | 56921 | 74508
5 | 16:33.34 | 3:54.24 | 74509 | 92082
6 | 20:27.58 | 3:06.26 | 92083 | 106058
7 | 23:34.09 | 4:41.48 | 106059 | 127181
8 | 28:15.57 | 3:00.19 | 127182 | 140700
9 | 31:16.01 | 2:35.49 | 140701 | 152374
10 | 33:51.50 | 3:06.63 | 152375 | 166387
11 | 36:58.38 | 4:16.46 | 166388 | 185633
12 | 41:15.09 | 4:21.54 | 185634 | 205262
13 | 45:36.63 | 5:06.41 | 205263 | 228253
14 | 50:43.29 | 6:55.13 | 228254 | 259391
15 | 57:38.42 | 6:00.07 | 259392 | 286398

Характеристики диапазона извлечения и сообщения об ошибках

Выбранный диапазон

Имя файла I:\MOI_RAZDACI\VA - Renaissance The Mix Collection - Tale Of Us (2013)\VA - Renaissance The Mix Collection - Tale Of Us (2013)\1 - CD\Tale Of Us - Renaissance - The Mix Collection CD-1.wav

Пиковый уровень 96.6 %
Скорость извлечения 7.5 X
Качество диапазона 99.9 %
CRC теста 16103649
CRC копии 16103649
Копирование... OK

Ошибок не произошло

AccurateRip: сводка
Трек 1 отсутствует в базе данных
Трек 2 отсутствует в базе данных
Трек 3 отсутствует в базе данных
Трек 4 отсутствует в базе данных
Трек 5 отсутствует в базе данных
Трек 6 отсутствует в базе данных
Трек 7 отсутствует в базе данных
Трек 8 отсутствует в базе данных
Трек 9 отсутствует в базе данных
Трек 10 отсутствует в базе данных
Трек 11 отсутствует в базе данных
Трек 12 отсутствует в базе данных
Трек 13 отсутствует в базе данных
Трек 14 отсутствует в базе данных
Трек 15 отсутствует в базе данных
Ни одного трека нет в базе AccurateRip

Конец отчёта

---- CUETools DB Plugin V2.1.6

[CTDB TOCID: 485Uzbds46nwJlsud0Z4mphwERs-] found
Submit result: 485Uzbds46nwJlsud0Z4mphwERs- has been confirmed
Track | CTDB Status
1 | (18/18) Accurately ripped
2 | (18/18) Accurately ripped
3 | (18/18) Accurately ripped
4 | (18/18) Accurately ripped
5 | (18/18) Accurately ripped
6 | (18/18) Accurately ripped
7 | (18/18) Accurately ripped
8 | (18/18) Accurately ripped
9 | (18/18) Accurately ripped
10 | (18/18) Accurately ripped
11 | (18/18) Accurately ripped
12 | (18/18) Accurately ripped
13 | (18/18) Accurately ripped
14 | (18/18) Accurately ripped
15 | (18/18) Accurately ripped

==== Контрольная сумма отчёта F719F38EB4FBBCC3106266A7BEC170894EFC099D70B8E170C4E9B3E18A8C597E ====
 REM GENRE House 
REM DATE 2013
REM DISCID C90EEA0F
REM COMMENT "ExactAudioCopy v1.3"
PERFORMER "Tale Of Us"
TITLE "Renaissance - The Mix Collection CD-1"
REM COMPOSER ""
FILE "Tale Of Us - Renaissance - The Mix Collection CD-1.flac" WAVE
TRACK 01 AUDIO
TITLE "Dancing Alma"
PERFORMER "Gran Cavaliere"
REM COMPOSER "Guillaume Boscara"
ISRC US83Z1106394
FLAGS DCP
INDEX 01 00:00:00
TRACK 02 AUDIO
TITLE "When Love Feels Like Crying"
PERFORMER "Mathew Jonson"
REM COMPOSER "Mathew Jonson"
ISRC CAW290500153
FLAGS DCP
INDEX 01 03:38:62
TRACK 03 AUDIO
TITLE "Life And Death"
PERFORMER "Tale of Us & Clockwork feat. The/Das"
REM COMPOSER ""
ISRC DEU671202248
FLAGS DCP
INDEX 01 08:20:57
TRACK 04 AUDIO
TITLE "Ordinary (Lake People’s Circle Motive Remix)"
PERFORMER "Kollektiv Turmstrasse"
REM COMPOSER ""
ISRC DELF21202005
FLAGS DCP
INDEX 01 12:38:71
TRACK 05 AUDIO
TITLE "Heimat (Robag's Turmkolle Rekksmow)"
PERFORMER "Kollektiv Turmstrasse"
REM COMPOSER ""
ISRC DEY470906989
FLAGS DCP
INDEX 01 16:33:34
TRACK 06 AUDIO
TITLE "Cookies Dust"
PERFORMER "Roman Flьgel"
REM COMPOSER ""
ISRC DEU671201668
FLAGS DCP
INDEX 01 20:27:58
TRACK 07 AUDIO
TITLE "Hardbody"
PERFORMER "Scuba"
REM COMPOSER ""
ISRC GBHQT1200089
FLAGS DCP
INDEX 01 23:34:09
TRACK 08 AUDIO
TITLE "Marriage (Baths Remix)"
PERFORMER "Gold Panda"
REM COMPOSER ""
ISRC GBDNH1100016
FLAGS DCP
INDEX 01 28:15:57
TRACK 09 AUDIO
TITLE "Nebula"
PERFORMER "Delta Funktionen"
REM COMPOSER ""
ISRC NLM790800008
FLAGS DCP
INDEX 01 31:16:01
TRACK 10 AUDIO
TITLE "Frozen Flower (Midland Remix)"
PERFORMER "Sei A"
REM COMPOSER ""
ISRC CAT391100174
FLAGS DCP
INDEX 01 33:51:50
TRACK 11 AUDIO
TITLE "Burnin’"
PERFORMER "Wareika"
REM COMPOSER ""
ISRC GBRP91300010
FLAGS DCP
INDEX 01 36:58:38
TRACK 12 AUDIO
TITLE "Cerulean"
PERFORMER "Simian Mobile Disco"
REM COMPOSER ""
ISRC GBDNH1200016
FLAGS DCP
INDEX 01 41:15:09
TRACK 13 AUDIO
TITLE "Straight & Arrow (Four Tet Remix)"
PERFORMER "FaltyDL"
REM COMPOSER ""
ISRC GBCFB1204704
FLAGS DCP
INDEX 01 45:36:63
TRACK 14 AUDIO
TITLE "Departure"
PERFORMER "Closer Musik"
REM COMPOSER ""
ISRC DEU670100050
FLAGS DCP
INDEX 01 50:43:29
TRACK 15 AUDIO
TITLE "Obscure Promises"
PERFORMER "Tale of Us"
REM COMPOSER ""
ISRC GBRP91300011
FLAGS DCP
INDEX 01 57:38:42
Треклист:
01. Daniel Avery and The Deadstock 33's - Magnetic (Barnt Remix Overture Edit) (01:38)
02. Roman Flьgel - Softice (03:41)
03. Tin Man - Nonneo (Donato Dozzy Remix) (05:00)
04. Carl Craig - At Les (Christian Smith Hypnotica Remix) (04:12)
05. Recondite - Felicity (04:44)
06. Argy, Baikal - Upon Ourselves (Osunlade Stripped Mix) (03:24)
07. Mind Against - Cagliostro (05:45)
08. Lake People - Point in Time (03:02)
09. Herbert - It's Only (DJ Koze Mix) (05:52)
10. Seph - Zoom (Bi) (03:45)
11. Triola - Leuchtturm (Wighnomy ґs Polarzipper Remix) (03:31)
12. Robert Hood - Hate Transmissions (03:58)
13. Daniel Avery - Water Jump (05:11)
14. Petar Dundov - Distant Shores (05:43)
15. Extrawelt - Phoebe (04:32)
16. P.R.T.C.T.N. - Area Forty One (05:25)

 Exact Audio Copy V1.3 from 2. September 2016 

Отчёт EAC об извлечении, выполненном 7. августа 2019, 5:07

Tale Of Us / Renaissance - The Mix Collection CD-2

Дисковод: PIONEER DVD-RW DVR-109 Adapter: 3 ID: 0

Режим чтения : Достоверность
Использование точного потока : Да
Отключение кэша аудио : Да
Использование указателей C2 : Нет

Коррекция смещения при чтении : 48
Способность читать области Lead-in и Lead-out : Нет
Заполнение пропущенных сэмплов тишиной : Да
Удаление блоков с тишиной в начале и конце : Нет
При вычислениях CRC использовались нулевые сэмплы : Да
Интерфейс : Установленный внешний ASPI-интерфейс

Выходной формат : Пользовательский кодировщик
Выбранный битрейт : 128 kBit/s
Качество : Высокий
Добавление ID3-тега : Нет
Утилита сжатия : C:\Program Files\Exact Audio Copy\FLAC\FLAC.EXE
Дополнительные параметры : -V -8 -T "Genre=%genre%" -T "Artist=%artist%" -T "Title=%title%" -T "Album=%albumtitle%" -T "Date=%year%" -T "Tracknumber=%tracknr%" -T "Comment=%comment%" %source%

TOC извлечённого CD

Трек | Старт | Длительность | Начальный сектор | Конечный сектор
---------------------------------------------------------------------
1 | 0:00.00 | 1:38.37 | 0 | 7386
2 | 1:38.37 | 3:41.69 | 7387 | 24030
3 | 5:20.31 | 5:00.34 | 24031 | 46564
4 | 10:20.65 | 4:12.68 | 46565 | 65532
5 | 14:33.58 | 4:44.18 | 65533 | 86850
6 | 19:18.01 | 3:24.63 | 86851 | 102213
7 | 22:42.64 | 5:45.46 | 102214 | 128134
8 | 28:28.35 | 3:02.45 | 128135 | 141829
9 | 31:31.05 | 5:52.66 | 141830 | 168295
10 | 37:23.71 | 3:45.06 | 168296 | 185176
11 | 41:09.02 | 3:31.10 | 185177 | 201011
12 | 44:40.12 | 3:58.50 | 201012 | 218911
13 | 48:38.62 | 5:11.36 | 218912 | 242272
14 | 53:50.23 | 5:43.13 | 242273 | 268010
15 | 59:33.36 | 4:32.57 | 268011 | 288467
16 | 64:06.18 | 5:25.20 | 288468 | 312862

Характеристики диапазона извлечения и сообщения об ошибках

Выбранный диапазон

Имя файла I:\MOI_RAZDACI\VA - Renaissance The Mix Collection - Tale Of Us (2013)\VA - Renaissance The Mix Collection - Tale Of Us (2013)\2 - CD\Tale Of Us - Renaissance - The Mix Collection CD-2.wav

Пиковый уровень 97.7 %
Скорость извлечения 7.7 X
Качество диапазона 100.0 %
CRC теста 5BF2117C
CRC копии 5BF2117C
Копирование... OK

Ошибок не произошло

AccurateRip: сводка
Трек 1 отсутствует в базе данных
Трек 2 отсутствует в базе данных
Трек 3 отсутствует в базе данных
Трек 4 отсутствует в базе данных
Трек 5 отсутствует в базе данных
Трек 6 отсутствует в базе данных
Трек 7 отсутствует в базе данных
Трек 8 отсутствует в базе данных
Трек 9 отсутствует в базе данных
Трек 10 отсутствует в базе данных
Трек 11 отсутствует в базе данных
Трек 12 отсутствует в базе данных
Трек 13 отсутствует в базе данных
Трек 14 отсутствует в базе данных
Трек 15 отсутствует в базе данных
Трек 16 отсутствует в базе данных
Ни одного трека нет в базе AccurateRip

Конец отчёта

---- CUETools DB Plugin V2.1.6

[CTDB TOCID: BuOP.s9y1LYhT5LhKgnstt2V.xY-] found
Submit result: BuOP.s9y1LYhT5LhKgnstt2V.xY- has been confirmed
Track | CTDB Status
1 | (18/18) Accurately ripped
2 | (18/18) Accurately ripped
3 | (18/18) Accurately ripped
4 | (18/18) Accurately ripped
5 | (18/18) Accurately ripped
6 | (18/18) Accurately ripped
7 | (18/18) Accurately ripped
8 | (18/18) Accurately ripped
9 | (18/18) Accurately ripped
10 | (18/18) Accurately ripped
11 | (18/18) Accurately ripped
12 | (18/18) Accurately ripped
13 | (18/18) Accurately ripped
14 | (18/18) Accurately ripped
15 | (18/18) Accurately ripped
16 | (18/18) Accurately ripped

==== Контрольная сумма отчёта 47CC9CE625D34D53A7646310AA25BBDF3275355C0667FA82060B3FA61317AE92 ====
 REM GENRE House 
REM DATE 2013
REM DISCID CB104B10
REM COMMENT "ExactAudioCopy v1.3"
PERFORMER "Tale Of Us"
TITLE "Renaissance - The Mix Collection CD-2"
REM COMPOSER ""
FILE "Tale Of Us - Renaissance - The Mix Collection CD-2.flac" WAVE
TRACK 01 AUDIO
TITLE "Magnetic (Barnt Remix Overture Edit)"
PERFORMER "Daniel Avery and The Deadstock 33's"
REM COMPOSER ""
ISRC DEU671202276
FLAGS DCP
INDEX 01 00:00:00
TRACK 02 AUDIO
TITLE "Softice"
PERFORMER "Roman Flьgel"
REM COMPOSER ""
FLAGS DCP
INDEX 01 01:38:37
TRACK 03 AUDIO
TITLE "Nonneo (Donato Dozzy Remix)"
PERFORMER "Tin Man"
REM COMPOSER ""
ISRC USJ4X0701503
FLAGS DCP
INDEX 01 05:20:31
TRACK 04 AUDIO
TITLE "At Les (Christian Smith Hypnotica Remix)"
PERFORMER "Carl Craig"
REM COMPOSER ""
ISRC GBYNV1000560
FLAGS DCP
INDEX 01 10:20:65
TRACK 05 AUDIO
TITLE "Felicity"
PERFORMER "Recondite"
REM COMPOSER ""
ISRC USJ4X0702003
FLAGS DCP
INDEX 01 14:33:58
TRACK 06 AUDIO
TITLE "Upon Ourselves (Osunlade Stripped Mix)"
PERFORMER "Argy, Baikal"
REM COMPOSER ""
ISRC USPXA1100015
FLAGS DCP
INDEX 01 19:18:01
TRACK 07 AUDIO
TITLE "Cagliostro"
PERFORMER "Mind Against"
REM COMPOSER ""
ISRC DEU671202130
FLAGS DCP
INDEX 01 22:42:64
TRACK 08 AUDIO
TITLE "Point in Time"
PERFORMER "Lake People"
REM COMPOSER ""
ISRC DEPL91205061
FLAGS DCP
INDEX 01 28:28:35
TRACK 09 AUDIO
TITLE "It's Only (DJ Koze Mix)"
PERFORMER "Herbert"
REM COMPOSER ""
ISRC GBDJX1200037
FLAGS DCP
INDEX 01 31:31:05
TRACK 10 AUDIO
TITLE "Zoom (Bi)"
PERFORMER "Seph"
REM COMPOSER ""
ISRC QMSNZ1262626
FLAGS DCP
INDEX 01 37:23:71
TRACK 11 AUDIO
TITLE "Leuchtturm (Wighnomy ґs Polarzipper Remix)"
PERFORMER "Triola"
REM COMPOSER ""
ISRC DEU670500019
FLAGS DCP
INDEX 01 41:09:02
TRACK 12 AUDIO
TITLE "Hate Transmissions"
PERFORMER "Robert Hood"
REM COMPOSER ""
ISRC NLHD81200011
FLAGS DCP
INDEX 01 44:40:12
TRACK 13 AUDIO
TITLE "Water Jump"
PERFORMER "Daniel Avery"
REM COMPOSER ""
ISRC GBTZZ1200016
FLAGS DCP
INDEX 01 48:38:62
TRACK 14 AUDIO
TITLE "Distant Shores"
PERFORMER "Petar Dundov"
REM COMPOSER ""
ISRC BEN581100837
FLAGS DCP
INDEX 01 53:50:23
TRACK 15 AUDIO
TITLE "Phoebe"
PERFORMER "Extrawelt"
REM COMPOSER ""
ISRC DEQ201100689
FLAGS DCP
INDEX 01 59:33:36
TRACK 16 AUDIO
TITLE "Area Forty One"
PERFORMER "P.R.T.C.T.N."
REM COMPOSER "Dennis van Gemert"
ISRC NLNW51200012
FLAGS DCP
INDEX 01 64:06:18

Этот торрент недоступен для скачивания без регистрации, однако доступен по публичной magnet-ссылке (источники с публичных трекеров). Перед использованием ссылки прочтите, пожалуйста Пользовательское соглашение, а также как можно дольше оставайтесь на раздаче! Для того, чтобы скачать сам торрент-файл (который видит больше источников), а также для того, чтобы поблагодарить релизера, вам необходимо зарегистрироваться. Если регистрироваться лень - вы можете также попробовать скачать релиз по нашим партнерским ссылкам ниже. Кроме того, зарегистрированным пользователям не показывается всплывающая реклама при скачивании.

[underver.se].t150189.torrent
Трекер: Зарегистрирован   [ 08.11.2019 15:30 ]  

Статус: проверено (by Бишеп at 08.11.2019 15:31)
Поблагодарили: пока никто не поблагодарил...
Тип торрента: публичный - доступные источники с открытых трекеров: 
Размер: 839 MB (занимает 0,19 DVDR, для записи нужно 1 болванка DVDR/RW)
 
 
Похожие темы
Форум Тема Автор Торрент Отв. Посл. сооб.
House (Tech House, Deep House) Herbert - Early Herbert (2013) [MP3, 320 kbps] ANDRAKO
0 | 4

0 | 1736

4

12.01.2014 12:47

House (Tech House) Alexey Union Feat. Ira Ange - Andromeda (2017) [MP3, 320 kbps CBR] Darkferse
2 | 0

0 | 847

1

18.03.2017 20:15

House (Tech House, Deep House, Minimal) Hen Greca - Little Helpers 266 (2017) [MP3, 320 kbps CBR] Darkferse
1 | 0

0 | 779

3

19.03.2017 00:30

House (Tech House, Techno) Joeski - Blackbird (EP) (2017) [MP3, 320 kbps CBR] Darkferse
2 | 0

0 | 875

2

27.03.2017 20:56

House (Tech House) Nhar - Surface (EP) (2017) [MP3, 320 kbps CBR] Darkferse
1 | 0

0 | 715

1

01.04.2017 13:21

House (Tech House, Deep House, Techno) The Deepshakerz - Sensations (The Album: Remixes) (2017) [MP3, 320 kbps CBR] Darkferse
0 | 0

0 | 802

3

03.04.2017 21:52

House (Tech House, Techno, Downtempo) Oliver Koletzki - The Arc Of Tension (2017) [MP3, 320 kbps CBR] Darkferse
10 | 1

0 | 1521

8

19.05.2017 19:52

House (Tech House, Downtempo, Chillout, Drum & Bass) Sasha - Scene Delete The Remixes (2017) [MP3, 320 kbps CBR] Darkferse
5 | 0

0 | 1043

2

19.05.2017 19:49

House (Tech House, Techno) Nick Hoppner - Work (2017) [MP3, 320 kbps CBR] Darkferse
0 | 0

0 | 598

1

11.06.2017 01:09

House (Tech House, Electro House) Sascha Funke - Lotos Land (2017) [MP3, 320 kbps CBR] Darkferse
2 | 0

0 | 857

3

12.06.2017 17:45


Яндекс.Метрика powered by Sphinx


В Н И М А Н И Е
Сайт не распространяет и не хранит электронные версии произведений, а лишь бесплатно и без коммерческой выгоды (не требуя взамен платы,
SMS и т.д.) предоставляет доступ к создаваемому пользователями каталогу ссылок на торрент-файлы, которые содержат только списки хеш-сумм.
Убедительная просьба с жалобами обращаться напрямую к пользователю, разместившему торрент файл.

Вверх