Loading...
Error

(House) VA - Hed Kandi: House Heaven (2018) [FLAC (Image+.Cue), Lossless]

Статистика раздачи
Размер:  853 MB   |    Зарегистрирован:  4 дня   |    Скачан:  0 раз

Полного источника не было: Никогда

Сидов:  0  |  0 KB/s  ]   Личеров:  0  |  0 KB/s  ]

* - сиды/пиры с внешних источников

   
 
Автор Сообщение

Бишеп Пол:Муж

08-Ноя-2019 15:52

VA - Hed Kandi: House Heaven

Жанр: House
Год выпуска: 2018
Носитель: CD
Производитель диска: Hed Kandi / Sony Music - HEDK160
Аудиокодек: FLAC
Тип рипа: Image+.Cue
Битрейт аудио: lossless
Продолжительность: 02:00:24

Треклист:
01. Duke Dumont Feat. A*M*E - Need U (100%) (2:51)
02. Storm Queen - Look Right Through (MK vocal edit) (2:24)
03. Secondcity - I Wanna Feel (3:02)
04. Bakermat - Teach Me (3:04)
05. Paul Woolford - Untitled (Call Out Your Name) (2:48)
06. Format:B - Chunky (2:35)
07. Lxury - J.A.W.S (6:01)
08. Mike Mago - The Show (vocal edit) (2:43)
09. Kokiri - Turn Back Time (Retrospect) (2:42)
10. Ben Delay Feat. Alexandra Prince - The Boy Is Mine (3:33)
11. Frequency & SoulCircuit Feat. Diia - Lost (5:45)
12. Bondax - Giving It All (Friend Within remix) (5:56)
13. Josh Parkinson - No More (5:30)
14. LKiD - That Girl (5:24)
15. Dale Howard - How To Love (5:45)

 Exact Audio Copy V1.1 from 23. June 2015 

EAC extraction logfile from 13. September 2018, 21:51

Various / Hed Kandi House Heaven (Mix One0

Used drive : ASUS DRW-24D5MT Adapter: 1 ID: 0

Read mode : Secure
Utilize accurate stream : Yes
Defeat audio cache : Yes
Make use of C2 pointers : No

Read offset correction : 6
Overread into Lead-In and Lead-Out : No
Fill up missing offset samples with silence : Yes
Delete leading and trailing silent blocks : No
Null samples used in CRC calculations : Yes
Used interface : Native Win32 interface for Win NT & 2000

Used output format : User Defined Encoder
Selected bitrate : 768 kBit/s
Quality : High
Add ID3 tag : No
Command line compressor : F:\Программы\Exact Audio Copy\FLAC\FLAC.EXE
Additional command line options : -6 -V -T "ARTIST=%artist%" -T "TITLE=%title%" -T "ALBUM=%albumtitle%" -T "DATE=%year%" -T "TRACKNUMBER=%tracknr%" -T "GENRE=%genre%" -T "COMMENT=Ripped by grandsrt8" -T "BAND=%albuminterpret%" -T "ALBUMARTIST=%albuminterpret%" -T "COMPOSER=%composer%" %haslyrics%--tag-from-file=LYRICS="%lyricsfile%"%haslyrics% -T "DISCNUMBER=%cdnumber%" -T "TOTALDISCS=%totalcds%" -T "TOTALTRACKS=%numtracks%" %hascover%--picture="%coverfile%"%hascover% %source% -o %dest%

TOC of the extracted CD

Track | Start | Length | Start sector | End sector
---------------------------------------------------------
1 | 0:00.00 | 2:51.13 | 0 | 12837
2 | 2:51.13 | 2:24.00 | 12838 | 23637
3 | 5:15.13 | 3:02.37 | 23638 | 37324
4 | 8:17.50 | 3:04.21 | 37325 | 51145
5 | 11:21.71 | 2:48.03 | 51146 | 63748
6 | 14:09.74 | 2:35.33 | 63749 | 75406
7 | 16:45.32 | 6:00.70 | 75407 | 102476
8 | 22:46.27 | 2:42.41 | 102477 | 114667
9 | 25:28.68 | 2:42.34 | 114668 | 126851
10 | 28:11.27 | 3:33.00 | 126852 | 142826
11 | 31:44.27 | 5:45.00 | 142827 | 168701
12 | 37:29.27 | 5:56.10 | 168702 | 195411
13 | 43:25.37 | 5:30.11 | 195412 | 220172
14 | 48:55.48 | 5:24.32 | 220173 | 244504
15 | 54:20.05 | 5:44.49 | 244505 | 270353

Range status and errors

Selected range

Filename F:\Rips grandsrt8\Various - Hed Kandi House Heaven (Mix One0.wav

Peak level 98.8 %
Extraction speed 3.1 X
Range quality 100.0 %
Test CRC 75930BBA
Copy CRC 75930BBA
Copy OK

No errors occurred

AccurateRip summary
Track 1 not present in database
Track 2 not present in database
Track 3 not present in database
Track 4 not present in database
Track 5 not present in database
Track 6 not present in database
Track 7 not present in database
Track 8 not present in database
Track 9 not present in database
Track 10 not present in database
Track 11 not present in database
Track 12 not present in database
Track 13 not present in database
Track 14 not present in database
Track 15 not present in database
None of the tracks are present in the AccurateRip database

End of status report

---- CUETools DB Plugin V2.1.6

[CTDB TOCID: qC2qdZG56Z_qkC3eHE7ghX5L8QM-] disk not present in database
Submit result: qC2qdZG56Z_qkC3eHE7ghX5L8QM- has been uploaded

==== Log checksum 2D595F43E7B3B5C709DE75EEECC1BAA39A7D8B13F14C23259EF7D76F01BBD3CB ====
 REM GENRE House 
REM DATE 2018
REM DISCID CE0E140F
REM COMMENT "ExactAudioCopy v1.1"
PERFORMER "Various"
TITLE "Hed Kandi House Heaven (Mix One0"
FILE "Various - Hed Kandi House Heaven (Mix One0.flac" WAVE
TRACK 01 AUDIO
TITLE "Need U (100%)"
PERFORMER "Duke Dumont Feat. A*M*E"
INDEX 01 00:00:00
TRACK 02 AUDIO
TITLE "Look Right Through (MK vocal edit)"
PERFORMER "Storm Queen"
INDEX 01 02:51:13
TRACK 03 AUDIO
TITLE "I Wanna Feel"
PERFORMER "Secondcity"
INDEX 01 05:15:13
TRACK 04 AUDIO
TITLE "Teach Me"
PERFORMER "Bakermat"
INDEX 01 08:17:50
TRACK 05 AUDIO
TITLE "Untitled (Call Out Your Name)"
PERFORMER "Paul Woolford"
INDEX 01 11:21:71
TRACK 06 AUDIO
TITLE "Chunky"
PERFORMER "Format:B"
INDEX 01 14:09:74
TRACK 07 AUDIO
TITLE "J.A.W.S"
PERFORMER "Lxury"
INDEX 01 16:45:32
TRACK 08 AUDIO
TITLE "The Show (vocal edit)"
PERFORMER "Mike Mago"
INDEX 01 22:46:27
TRACK 09 AUDIO
TITLE "Turn Back Time (Retrospect)"
PERFORMER "Kokiri"
INDEX 01 25:28:68
TRACK 10 AUDIO
TITLE "The Boy Is Mine"
PERFORMER "Ben Delay Feat. Alexandra Prince"
INDEX 01 28:11:27
TRACK 11 AUDIO
TITLE "Lost"
PERFORMER "Frequency & SoulCircuit Feat. Diia"
INDEX 01 31:44:27
TRACK 12 AUDIO
TITLE "Giving It All (Friend Within remix)"
PERFORMER "Bondax"
INDEX 01 37:29:27
TRACK 13 AUDIO
TITLE "No More"
PERFORMER "Josh Parkinson"
INDEX 01 43:25:37
TRACK 14 AUDIO
TITLE "That Girl"
PERFORMER "LKiD"
INDEX 01 48:55:48
TRACK 15 AUDIO
TITLE "How To Love"
PERFORMER "Dale Howard"
INDEX 01 54:20:05
Треклист:
01. Julio Bashmore - Rhythm Of Auld (feat J'Danna) (5:15)
02. Ninetoes - Finder (The Path) (3:24)
03. Faul & Wad Ad Vs Pnau - Changes (3:18)
04. Le Youth - Cool (3:30)
05. Chris Malinchak - If U Got It (3:16)
06. Tieks - Sunshine (feat Dan Harkna) (2:59)
07. Campsite Dream - Crush (3:24)
08. Charming Horses - Higher Love (feat Grace Grundy) (2:23)
09. Loui & Scibi - Believe Me (feat Beth Aggett - Hot Sand remix) (5:37)
10. Mausi - Move (3:41)
11. A Minor - Be Mine (feat Kelli-Leigh) (3:00)
12. Fuchse - Left to Waste (feat Patrice & Humphrey Sitima - Ferrow remix) (4:15)
13. Essess - Just Friends (feat Brandan Reilly - Toyboy & Robin remix) (4:08)
14. The Golden Boy - Gonna Do (5:38)
15. Whitesquar - Looking (6:32)

 Exact Audio Copy V1.1 from 23. June 2015 

EAC extraction logfile from 13. September 2018, 22:43

Various / Hed Kandi House Heaven (Mix Two)

Used drive : ASUS DRW-24D5MT Adapter: 1 ID: 0

Read mode : Secure
Utilize accurate stream : Yes
Defeat audio cache : Yes
Make use of C2 pointers : No

Read offset correction : 6
Overread into Lead-In and Lead-Out : No
Fill up missing offset samples with silence : Yes
Delete leading and trailing silent blocks : No
Null samples used in CRC calculations : Yes
Used interface : Native Win32 interface for Win NT & 2000

Used output format : User Defined Encoder
Selected bitrate : 768 kBit/s
Quality : High
Add ID3 tag : No
Command line compressor : F:\Программы\Exact Audio Copy\FLAC\FLAC.EXE
Additional command line options : -6 -V -T "ARTIST=%artist%" -T "TITLE=%title%" -T "ALBUM=%albumtitle%" -T "DATE=%year%" -T "TRACKNUMBER=%tracknr%" -T "GENRE=%genre%" -T "COMMENT=Ripped by grandsrt8" -T "BAND=%albuminterpret%" -T "ALBUMARTIST=%albuminterpret%" -T "COMPOSER=%composer%" %haslyrics%--tag-from-file=LYRICS="%lyricsfile%"%haslyrics% -T "DISCNUMBER=%cdnumber%" -T "TOTALDISCS=%totalcds%" -T "TOTALTRACKS=%numtracks%" %hascover%--picture="%coverfile%"%hascover% %source% -o %dest%

TOC of the extracted CD

Track | Start | Length | Start sector | End sector
---------------------------------------------------------
1 | 0:00.00 | 5:14.64 | 0 | 23613
2 | 5:14.64 | 3:24.21 | 23614 | 38934
3 | 8:39.10 | 3:18.00 | 38935 | 53784
4 | 11:57.10 | 3:30.07 | 53785 | 69541
5 | 15:27.17 | 3:15.54 | 69542 | 84220
6 | 18:42.71 | 2:59.17 | 84221 | 97662
7 | 21:42.13 | 3:24.12 | 97663 | 112974
8 | 25:06.25 | 2:23.16 | 112975 | 123715
9 | 27:29.41 | 5:37.03 | 123716 | 148993
10 | 33:06.44 | 3:41.00 | 148994 | 165568
11 | 36:47.44 | 2:59.74 | 165569 | 179067
12 | 39:47.43 | 4:15.16 | 179068 | 198208
13 | 44:02.59 | 4:07.55 | 198209 | 216788
14 | 48:10.39 | 5:37.67 | 216789 | 242130
15 | 53:48.31 | 6:32.28 | 242131 | 271558

Range status and errors

Selected range

Filename F:\Rips grandsrt8\Various - Hed Kandi House Heaven (Mix Two).wav

Peak level 98.8 %
Extraction speed 3.2 X
Range quality 99.9 %
Test CRC 46E6BE0F
Copy CRC 46E6BE0F
Copy OK

No errors occurred

AccurateRip summary
Track 1 not present in database
Track 2 not present in database
Track 3 not present in database
Track 4 not present in database
Track 5 not present in database
Track 6 not present in database
Track 7 not present in database
Track 8 not present in database
Track 9 not present in database
Track 10 not present in database
Track 11 not present in database
Track 12 not present in database
Track 13 not present in database
Track 14 not present in database
Track 15 not present in database
None of the tracks are present in the AccurateRip database

End of status report

---- CUETools DB Plugin V2.1.6

[CTDB TOCID: SqTypZxO2qCMOxN_z..caDx6448-] disk not present in database
Submit result: SqTypZxO2qCMOxN_z..caDx6448- has been uploaded

==== Log checksum 28DA8174135D4E0C22A95E22D73DD97C4CFE3C6AD8FF67434879C641F4B1840E ====
 REM GENRE House 
REM DATE 2018
REM DISCID CE0E240F
REM COMMENT "ExactAudioCopy v1.1"
PERFORMER "Various"
TITLE "Hed Kandi House Heaven (Mix Two)"
FILE "Various - Hed Kandi House Heaven (Mix Two).flac" WAVE
TRACK 01 AUDIO
TITLE "Rhythm Of Auld (feat J'Danna)"
PERFORMER "Julio Bashmore"
INDEX 01 00:00:00
TRACK 02 AUDIO
TITLE "Finder (The Path)"
PERFORMER "Ninetoes"
INDEX 01 05:14:64
TRACK 03 AUDIO
TITLE "Changes"
PERFORMER "Faul & Wad Ad Vs Pnau"
INDEX 01 08:39:10
TRACK 04 AUDIO
TITLE "Cool"
PERFORMER "Le Youth"
INDEX 01 11:57:10
TRACK 05 AUDIO
TITLE "If U Got It"
PERFORMER "Chris Malinchak"
INDEX 01 15:27:17
TRACK 06 AUDIO
TITLE "Sunshine (feat Dan Harkna)"
PERFORMER "Tieks"
INDEX 01 18:42:71
TRACK 07 AUDIO
TITLE "Crush"
PERFORMER "Campsite Dream"
INDEX 01 21:42:13
TRACK 08 AUDIO
TITLE "Higher Love (feat Grace Grundy)"
PERFORMER "Charming Horses"
INDEX 01 25:06:25
TRACK 09 AUDIO
TITLE "Believe Me (feat Beth Aggett - Hot Sand remix)"
PERFORMER "Loui & Scibi "
INDEX 01 27:29:41
TRACK 10 AUDIO
TITLE "Move"
PERFORMER "Mausi"
INDEX 01 33:06:44
TRACK 11 AUDIO
TITLE "Be Mine (feat Kelli-Leigh)"
PERFORMER "A Minor"
INDEX 01 36:47:44
TRACK 12 AUDIO
TITLE "Left to Waste (feat Patrice & Humphrey Sitima - Ferrow remix)"
PERFORMER "Fuchse"
INDEX 01 39:47:43
TRACK 13 AUDIO
TITLE "Just Friends (feat Brandan Reilly - Toyboy & Robin remix)"
PERFORMER "Essess"
INDEX 01 44:02:59
TRACK 14 AUDIO
TITLE "Gonna Do"
PERFORMER "The Golden Boy"
INDEX 01 48:10:39
TRACK 15 AUDIO
TITLE "Looking"
PERFORMER "Whitesquar"
INDEX 01 53:48:31

Этот торрент недоступен для скачивания без регистрации, однако доступен по публичной magnet-ссылке (источники с публичных трекеров). Перед использованием ссылки прочтите, пожалуйста Пользовательское соглашение, а также как можно дольше оставайтесь на раздаче! Для того, чтобы скачать сам торрент-файл (который видит больше источников), а также для того, чтобы поблагодарить релизера, вам необходимо зарегистрироваться. Если регистрироваться лень - вы можете также попробовать скачать релиз по нашим партнерским ссылкам ниже. Кроме того, зарегистрированным пользователям не показывается всплывающая реклама при скачивании.

[underver.se].t150200.torrent
Трекер: Зарегистрирован   [ 08.11.2019 15:52 ]  

Статус: проверено (by Бишеп at 08.11.2019 15:52)
Поблагодарили: пока никто не поблагодарил...
Тип торрента: публичный - доступные источники с открытых трекеров: 
Размер: 853 MB (занимает 0,19 DVDR, для записи нужно 1 болванка DVDR/RW)
 
 
Похожие темы
Форум Тема Автор Торрент Отв. Посл. сооб.
Сборники (House) VA - Generation HEX 001 (EP) (2016) [MP3, 320 kbps] ANDRAKO
2 | 0

0 | 509

0

07.12.2016 14:33

Сборники (House) VA - Deephouse Favorites 2k16 (2016) [MP3, 320 kbps CBR] IronMan
1 | 0

1 | 907

6

27.06.2016 18:01

Сборники (House) VA - Black Hole House Music 08-18 (2018) [MP3, 320 kbps CBR] 90ytr90
1 | 0

0 | 250

1

10.08.2018 20:07

Сборники (House) VA - Funky, Groove And Jackin House Vol.1 (By Luca Debonaire) (2017) [MP3, 320 kbps CBR] Evgenii82
0 | 0

0 | 252

1

22.08.2018 06:54

Сборники (House) VA - Kings Of IBIZA (The Classic Anthems Edition) (2019) [MP3, 320 kbps CBR] Magnat
6 | 2

1 | 127

2

02.06.2019 19:45

Сборники (House) VA - Club Summer Vibe '19 (2019) [MP3, 320 kbps CBR] Magnat
9 | 0

1 | 151

1

03.06.2019 04:52

Сборники (House) VA - Future Sounds of Summer '19 (2019) [MP3, 320 kbps CBR] Magnat
6 | 0

1 | 146

0

03.06.2019 04:56

Сборники (House) VA - Ibiza Summer 2019 House (2019) [MP3, 320 kbps CBR] 90ytr90
11 | 1

0 | 111

1

17.08.2019 19:21

Сборники (House) VA - Hed Kandi 2018 (2CD) (2017) [FLAC (Image+.Cue), Lossless] Бишеп
9 | 1

0 | 279

0

09.11.2019 16:56

Архив (электронная музыка) (House) VA - Ministry Of Sound – The Annual 2012 (2012) [MP3, 320 kbps] PainKiler
0 | 0

1 | 1442

10

25.05.2018 15:38


Яндекс.Метрика powered by Sphinx


В Н И М А Н И Е
Сайт не распространяет и не хранит электронные версии произведений, а лишь бесплатно и без коммерческой выгоды (не требуя взамен платы,
SMS и т.д.) предоставляет доступ к создаваемому пользователями каталогу ссылок на торрент-файлы, которые содержат только списки хеш-сумм.
Убедительная просьба с жалобами обращаться напрямую к пользователю, разместившему торрент файл.

Вверх