Loading...
Error

(Dark Ambient, Experimental) Bad Sector - Cephus (2015) [FLAC (Tracks+.Cue), Lossless]

Статистика раздачи
Размер:  271 MB   |    Зарегистрирован:  4 дня   |    Скачан:  0 раз

Полного источника не было: Никогда

Сидов:  0  |  0 KB/s  ]   Личеров:  0  |  0 KB/s  ]

* - сиды/пиры с внешних источников

   
 
Автор Сообщение

Бишеп Пол:Муж

08-Ноя-2019 16:15

Bad Sector - Cephus

Жанр: Dark Ambient, Experimental
Год выпуска: 2015
Носитель: CD
Производитель диска: Bad-sector.com - BS 01-2015
Аудиокодек: FLAC
Тип рипа: Tracks+.CUE
Битрейт аудио: lossless
Продолжительность: 00:49:54


Треклист:
01. Austen (05:21)
02. Breana (04:38)
03. Cephus (05:08)
04. Darion (03:13)
05. Electa (04:57)
06. Fleeta (03:52)
07. Gunnar (04:40)
08. Honora (04:27)
09. Ishaan (03:18)
10. Jimena (05:12)
11. Kamora (05:04)

 Exact Audio Copy V1.0 beta 6 from 9. April 2015 

EAC extraction logfile from 24. June 2015, 15:01

Bad Sector / Cephus

Used drive : Optiarc DVD RW AD-5240S Adapter: 1 ID: 0

Read mode : Secure
Utilize accurate stream : Yes
Defeat audio cache : Yes
Make use of C2 pointers : No

Read offset correction : 48
Overread into Lead-In and Lead-Out : No
Fill up missing offset samples with silence : Yes
Delete leading and trailing silent blocks : No
Null samples used in CRC calculations : Yes
Used interface : Native Win32 interface for Win NT & 2000
Gap handling : Appended to previous track

Used output format : User Defined Encoder
Selected bitrate : 1024 kBit/s
Quality : High
Add ID3 tag : No
Command line compressor : D:\iROpack\FLAC\flac.exe
Additional command line options : -8 -V -T "ARTIST=%artist%" -T "TITLE=%title%" -T "ALBUM=%albumtitle%" -T "DATE=%year%" -T "TRACKNUMBER=%tracknr%" -T "GENRE=%genre%" %source% -o %dest%

TOC of the extracted CD

Track | Start | Length | Start sector | End sector
---------------------------------------------------------
1 | 0:00.00 | 5:21.00 | 0 | 24074
2 | 5:21.00 | 4:38.38 | 24075 | 44962
3 | 9:59.38 | 5:08.74 | 44963 | 68136
4 | 15:08.37 | 3:13.21 | 68137 | 82632
5 | 18:21.58 | 4:57.64 | 82633 | 104971
6 | 23:19.47 | 3:52.22 | 104972 | 122393
7 | 27:11.69 | 4:40.21 | 122394 | 143414
8 | 31:52.15 | 4:27.57 | 143415 | 163496
9 | 36:19.72 | 3:18.26 | 163497 | 178372
10 | 39:38.23 | 5:12.04 | 178373 | 201776
11 | 44:50.27 | 5:04.45 | 201777 | 224621

Track 1

Filename R:\iRO\Rip\Cephus\01-Bad_Sector-Austen.wav

Pre-gap length 0:00:02.00

Peak level 97.7 %
Extraction speed 2.2 X
Track quality 99.9 %
Test CRC 946DD618
Copy CRC 946DD618
Track not present in AccurateRip database
Copy OK

Track 2

Filename R:\iRO\Rip\Cephus\02-Bad_Sector-Breana.wav

Pre-gap length 0:00:02.00

Peak level 97.7 %
Extraction speed 2.7 X
Track quality 100.0 %
Test CRC 19BB9241
Copy CRC 19BB9241
Track not present in AccurateRip database
Copy OK

Track 3

Filename R:\iRO\Rip\Cephus\03-Bad_Sector-Cephus.wav

Pre-gap length 0:00:02.00

Peak level 97.7 %
Extraction speed 3.0 X
Track quality 100.0 %
Test CRC EDF487BC
Copy CRC EDF487BC
Track not present in AccurateRip database
Copy OK

Track 4

Filename R:\iRO\Rip\Cephus\04-Bad_Sector-Darion.wav

Pre-gap length 0:00:02.00

Peak level 97.7 %
Extraction speed 3.1 X
Track quality 100.0 %
Test CRC 96CB689E
Copy CRC 96CB689E
Track not present in AccurateRip database
Copy OK

Track 5

Filename R:\iRO\Rip\Cephus\05-Bad_Sector-Electa.wav

Pre-gap length 0:00:02.00

Peak level 97.7 %
Extraction speed 3.5 X
Track quality 100.0 %
Test CRC A3946E71
Copy CRC A3946E71
Track not present in AccurateRip database
Copy OK

Track 6

Filename R:\iRO\Rip\Cephus\06-Bad_Sector-Fleeta.wav

Pre-gap length 0:00:02.00

Peak level 97.7 %
Extraction speed 3.5 X
Track quality 100.0 %
Test CRC 8190E7F3
Copy CRC 8190E7F3
Track not present in AccurateRip database
Copy OK

Track 7

Filename R:\iRO\Rip\Cephus\07-Bad_Sector-Gunnar.wav

Pre-gap length 0:00:02.00

Peak level 97.7 %
Extraction speed 3.8 X
Track quality 100.0 %
Test CRC C6F44798
Copy CRC C6F44798
Track not present in AccurateRip database
Copy OK

Track 8

Filename R:\iRO\Rip\Cephus\08-Bad_Sector-Honora.wav

Pre-gap length 0:00:02.00

Peak level 97.7 %
Extraction speed 4.0 X
Track quality 100.0 %
Test CRC 7AA3BDD7
Copy CRC 7AA3BDD7
Track not present in AccurateRip database
Copy OK

Track 9

Filename R:\iRO\Rip\Cephus\09-Bad_Sector-Ishaan.wav

Pre-gap length 0:00:02.00

Peak level 97.7 %
Extraction speed 4.0 X
Track quality 100.0 %
Test CRC 96B3A46B
Copy CRC 96B3A46B
Track not present in AccurateRip database
Copy OK

Track 10

Filename R:\iRO\Rip\Cephus\10-Bad_Sector-Jimena.wav

Pre-gap length 0:00:02.00

Peak level 97.7 %
Extraction speed 4.0 X
Track quality 99.9 %
Test CRC 5F4D67A3
Copy CRC 5F4D67A3
Track not present in AccurateRip database
Copy OK

Track 11

Filename R:\iRO\Rip\Cephus\11-Bad_Sector-Kamora.wav

Pre-gap length 0:00:02.00

Peak level 97.7 %
Extraction speed 4.6 X
Track quality 100.0 %
Test CRC 2F5352A1
Copy CRC 2F5352A1
Track not present in AccurateRip database
Copy OK

None of the tracks are present in the AccurateRip database

No errors occurred

End of status report

---- CUETools DB Plugin V2.1.6

[CTDB TOCID: uN6Jl5Stgt.f_eaHd_ZoCC4Ws6s-] disk not present in database
Submit result: uN6Jl5Stgt.f_eaHd_ZoCC4Ws6s- has been uploaded

==== Log checksum 760256E459781BECF445DB896C3B749D1C1BBFA78E353BCC7F36E9D7E0FD9064 ====
 REM GENRE Ambient 
REM DATE 2015
REM DISCID 6E0BB20B
REM COMMENT "ExactAudioCopy v1.0b6"
FILE "01-Bad_Sector-Austen.wav" WAVE
TRACK 01 AUDIO
FLAGS DCP
INDEX 01 00:00:00
TRACK 02 AUDIO
FLAGS DCP
INDEX 00 05:19:00
FILE "02-Bad_Sector-Breana.wav" WAVE
INDEX 01 00:00:00
TRACK 03 AUDIO
FLAGS DCP
INDEX 00 04:36:38
FILE "03-Bad_Sector-Cephus.wav" WAVE
INDEX 01 00:00:00
INDEX 02 02:45:47
TRACK 04 AUDIO
FLAGS DCP
INDEX 00 05:06:74
FILE "04-Bad_Sector-Darion.wav" WAVE
INDEX 01 00:00:00
TRACK 05 AUDIO
FLAGS DCP
INDEX 00 03:11:21
FILE "05-Bad_Sector-Electa.wav" WAVE
INDEX 01 00:00:00
TRACK 06 AUDIO
FLAGS DCP
INDEX 00 04:55:64
FILE "06-Bad_Sector-Fleeta.wav" WAVE
INDEX 01 00:00:00
TRACK 07 AUDIO
FLAGS DCP
INDEX 00 03:50:22
FILE "07-Bad_Sector-Gunnar.wav" WAVE
INDEX 01 00:00:00
TRACK 08 AUDIO
FLAGS DCP
INDEX 00 04:38:21
FILE "08-Bad_Sector-Honora.wav" WAVE
INDEX 01 00:00:00
TRACK 09 AUDIO
FLAGS DCP
INDEX 00 04:25:57
FILE "09-Bad_Sector-Ishaan.wav" WAVE
INDEX 01 00:00:00
TRACK 10 AUDIO
FLAGS DCP
INDEX 00 03:16:26
FILE "10-Bad_Sector-Jimena.wav" WAVE
INDEX 01 00:00:00
TRACK 11 AUDIO
FLAGS DCP
INDEX 00 05:10:04
FILE "11-Bad_Sector-Kamora.wav" WAVE
INDEX 01 00:00:00

Этот торрент недоступен для скачивания без регистрации, однако доступен по публичной magnet-ссылке (источники с публичных трекеров). Перед использованием ссылки прочтите, пожалуйста Пользовательское соглашение, а также как можно дольше оставайтесь на раздаче! Для того, чтобы скачать сам торрент-файл (который видит больше источников), а также для того, чтобы поблагодарить релизера, вам необходимо зарегистрироваться. Если регистрироваться лень - вы можете также попробовать скачать релиз по нашим партнерским ссылкам ниже. Кроме того, зарегистрированным пользователям не показывается всплывающая реклама при скачивании.

[underver.se].t150208.torrent
Трекер: Зарегистрирован   [ 08.11.2019 16:15 ]  

Статус: проверено (by Бишеп at 08.11.2019 16:16)
Поблагодарили: пока никто не поблагодарил...
Тип торрента: публичный - доступные источники с открытых трекеров: 
Размер: 271 MB (занимает 0,06 DVDR, для записи нужно 1 болванка DVDR/RW)
 
 
Похожие темы
Форум Тема Автор Торрент Отв. Посл. сооб.
Зарубежный Black, Death, Heavy, Thrash, Power, Folk, Gothic Metal (Dark Ambient, Black Metal, Drone) From The Bogs Of Aughiska - Mineral Bearing Veins (2018) [MP3, 320 kbps CBR] 90ytr90
2 | 1

0 | 364

4

29.09.2018 08:26

PsyChill, Ambient Dub (Dark Ambient, Psychill, Forest Chill, IDM, Downtempo) Avaris - The Forgotten Language (2019) [MP3, 320 kbps CBR] Magnat
5 | 0

0 | 174

1

02.06.2019 11:16

Traditional Electronic, Ambient, NewAge (Dark Ambient) Kolhoosi 13 - Monuments Of Power (2016) [MP3, 320 kbps] ANDRAKO
5 | 0

0 | 1110

1

23.12.2016 17:52

Traditional Electronic, Ambient, NewAge (Dark ambient) Deep Frozen Lands - White Horizons (2012) [MP3, 320 kbps CBR] Jimmy
2 | 0

0 | 1914

1

13.12.2012 18:41

Traditional Electronic, Ambient, NewAge (Dark Ambient) Kreazot-Maks - Contemplation (2016) [MP3, 320 kbps] ANDRAKO
0 | 0

0 | 1038

2

10.01.2017 16:41

EBM, Industrial, Dark Electro, Darkwave, Gothic Synth (Dark Ambient, Ritual Ambient) Kumbhaka - Lines and Shadows (2017) [MP3, 320 kbps CBR] Darkferse
1 | 0

0 | 779

3

27.05.2017 18:50

Traditional Electronic, Ambient, NewAge (Lossless) (Dark Ambient, Drone) Ajna - An Era of Torment (2017) [FLAC (Tracks), lossless] Web Darkferse
2 | 1

0 | 531

3

17.01.2018 11:59

Traditional Electronic, Ambient, NewAge (Lossless) (Dark Ambient, Drone) Ajna & Dronny Darko - Black Monolith (2017) [FLAC (Tracks), lossless] Web Darkferse
2 | 0

0 | 639

2

17.01.2018 12:08

Traditional Electronic, Ambient, NewAge (Lossless) (Dark Ambient, Neofolk, Experimental) Enmarta - The Hermit (2016) [FLAC (Tracks), Lossless] Web Бишеп
2 | 0

0 | 616

5

17.02.2018 16:31

Traditional Electronic, Ambient, NewAge (Lossless) (Dark Ambient, Berlin School) Cosmic Ground - 2 (2015) [FLAC (Tracks), Lossless] Web Бишеп
2 | 2

0 | 642

7

17.02.2018 16:45


Яндекс.Метрика powered by Sphinx


В Н И М А Н И Е
Сайт не распространяет и не хранит электронные версии произведений, а лишь бесплатно и без коммерческой выгоды (не требуя взамен платы,
SMS и т.д.) предоставляет доступ к создаваемому пользователями каталогу ссылок на торрент-файлы, которые содержат только списки хеш-сумм.
Убедительная просьба с жалобами обращаться напрямую к пользователю, разместившему торрент файл.

Вверх