Loading...
Error

(Classical vocal) Strozzi, Monteverdi, Kapsberger, Carissimi, Frescobaldi - Lamento (Romina Basso) (2014) [FLAC (Image+.cue), lossless]

Статистика раздачи
Размер:  369 MB   |    Зарегистрирован:  1 год 4 месяца   |    Скачан:  5 раз

Полного источника не было: 1 месяц 20 дней

Сидов:  0  |  0 KB/s  ]   Личеров:  0  |  0 KB/s  ]

* - сиды/пиры с внешних источников

   
 
Автор Сообщение

Inspektor_49 Пол:Муж

04-Янв-2020 18:32

Strozzi, Monteverdi, Kapsberger, Carissimi, Frescobaldi - Lamento (Romina Basso)

Жанр: Classical vocal
Год выпуска: 2014
Носитель: CD
Производитель: France, Naïve - V5390
Аудиокодек: FLAC
Тип рипа: Image+.cue
Битрейт: lossless
Продолжительность: 01:04:33

Треклист:

1. Johann Hieronymous Kapsberger - Toccata Seconda Arpeggiata - Lamento Della Regina De Svezia
2. Giacomo Carissimi - Lamento in Morte Di Maria Stuarda
3. Barbara Strozzi - Lagrime Mie
4. Claudio Monteverdi - Capriccio Di Durezze - Lamento D'Arianna
5. Girolamo Frescobaldi - Squarciato Appena Havea
Exact Audio Copy V1.3 from 2. September 2016 

Отчёт EAC об извлечении, выполненном 28. декабря 2019, 19:30

Romina BASSO / Lamento

Дисковод: ASUS BW-16D1H-U Adapter: 1 ID: 0

Режим чтения : Достоверность
Использование точного потока : Да
Отключение кэша аудио : Да
Использование указателей C2 : Нет

Коррекция смещения при чтении : 6
Способность читать области Lead-in и Lead-out : Нет
Заполнение пропущенных сэмплов тишиной : Да
Удаление блоков с тишиной в начале и конце : Нет
При вычислениях CRC использовались нулевые сэмплы : Да
Интерфейс : Встроенный Win32-интерфейс для Win NT/2000

Выходной формат : Пользовательский кодировщик
Выбранный битрейт : 128 kBit/s
Качество : Высокий
Добавление ID3-тега : Нет
Утилита сжатия : C:\Program Files (x86)\Exact Audio Copy 1.3\Flac\flac.exe
Дополнительные параметры : -V -8 -T "Date=%year%" -T "Genre=%genre%" %source%

TOC извлечённого CD

Трек | Старт | Длительность | Начальный сектор | Конечный сектор
---------------------------------------------------------------------
1 | 0:00.00 | 13:32.45 | 0 | 60944
2 | 13:32.45 | 11:28.40 | 60945 | 112584
3 | 25:01.10 | 12:38.26 | 112585 | 169460
4 | 37:39.36 | 11:23.48 | 169461 | 220733
5 | 49:03.09 | 15:32.25 | 220734 | 290658

Характеристики диапазона извлечения и сообщения об ошибках

Выбранный диапазон

Имя файла D:\EAC\New2019\Romina BASSO - Lamento 2014\Romina BASSO - Lamento.wav

Пиковый уровень 94.6 %
Скорость извлечения 7.5 X
Качество диапазона 99.9 %
CRC теста A8713A77
CRC копии A8713A77
Копирование... OK

Ошибок не произошло

AccurateRip: сводка

Трек 1 точность не определена (достоверность 1) [A0E38A08], AccurateRip вернул [7BF7A79F] (AR v2)
Трек 2 точность не определена (достоверность 1) [226BA0AC], AccurateRip вернул [6E70C0CD] (AR v2)
Трек 3 точность не определена (достоверность 1) [75DC3645], AccurateRip вернул [A56665C7] (AR v2)
Трек 4 точность не определена (достоверность 1) [12757E1B], AccurateRip вернул [AA1E381E] (AR v2)
Трек 5 точность не определена (достоверность 1) [2D2A6F95], AccurateRip вернул [CBD69388] (AR v2)

Ни один трек не прошёл проверки на точность
В вашей базе может быть иной вариант штамповки диска

Конец отчёта

---- CUETools DB Plugin V2.1.6

[CTDB TOCID: UqjTiOXKdXu7zxUDSXcSJCKqhLw-] found
Submit result: UqjTiOXKdXu7zxUDSXcSJCKqhLw- has been confirmed
Track | CTDB Status
1 | (1/ 8) Accurately ripped
2 | (1/ 8) Accurately ripped
3 | (1/ 8) Accurately ripped
4 | (1/ 8) Accurately ripped
5 | (1/ 8) Accurately ripped

==== Контрольная сумма отчёта 23C0BFD8A15A0C3975EE130C79D52CBBDCB0074C3998989EC052648BBE049843 ====
REM GENRE Classical|Baroque 
REM DATE 2014
REM DISCID 370F2305
REM COMMENT "ExactAudioCopy v1.3"
PERFORMER "Romina Basso (mezzo-soprano), Latinitas Nostra: Theodoros Kitsos (theorbo & baroque guitar), Andreas Linos (bass gamba), Markellos Chryssicos (harpsichord, organ & artistic dir.); with Haris Andrianos (Cavaliero -baritone-), Theodora Baka (Regina -mezzo-soprano-), Paul Zachariades (Damigella Prima -countertenor-), Nikos Spanatis (Damigella Seconda -countertenor-), Simos Papanas (violin), George Garavounis (percussion) in track 05"
TITLE "Lamento"
REM COMPOSER "Johannes Hieronymus Kapsperger (c.1580-1651), Luigi Rossi (1598-1653), Giacomo Carissimi (1605-1674), Barbara Strozzi (1619-1677), Girolamo Frescobaldi (1583-1643), Claudio Monteverdi 1567-1643), Francesco Provenzale (1624-1704)"
FILE "Romina Basso - Lamento.flac" WAVE
TRACK 01 AUDIO
TITLE "KAPSBERGER - Toccata seconda arpeggiata [Libro Primo d’Intavolatura di Chitarrone, Venice, 1604] / ROSSI - Lamento della Regina de Svezia (Un ferito cavaliero, di polve)"
PERFORMER "Romina Basso, Latinitas Nostra, Markellos Chryssicos"
REM COMPOSER "Johannes Hieronymus Kapsperger, Luigi Rossi"
INDEX 01 00:00:00
TRACK 02 AUDIO
TITLE "CARISSIMI - Lamento in morte di Maria Stuarta (Ferma, lascia ch’io parli)"
PERFORMER "Romina Basso, Latinitas Nostra, Markellos Chryssicos"
REM COMPOSER "Giacomo Carissimi"
INDEX 01 13:32:45
TRACK 03 AUDIO
TITLE "STROZZI - Lagrime mie, à che vi trattenete? [Diporti di Euterpe, overo cantate e ariette a voce sola, opera settima, Venice, F. Magni, 1659]"
PERFORMER "Romina Basso, Latinitas Nostra, Markellos Chryssicos"
REM COMPOSER "Barbara Strozzi"
INDEX 01 25:01:10
TRACK 04 AUDIO
TITLE "FRESCOBALDI - Capriccio ix di durezze Claudio [Primo Libro di Capricci, Rome, F. Magni, 1624] / MONTEVERDI - Lamento d’Arianna (Lasciatemi morire) [Monteverdi, Lamento d’Aria[n]na (Venice, B. Magni, 1623); Monteverdi, Il sesto libro de madrigali a cinque voci (Venice, R. Amadino, 1614); Monteverdi, Selva morale e spirituale (Venice, B. Magni, 1640/1)]"
PERFORMER "Romina Basso, Latinitas Nostra, Markellos Chryssicos"
REM COMPOSER "Girolamo Frescobaldi, Claudio Monteverdi "
INDEX 01 37:39:36
TRACK 05 AUDIO
TITLE "PROVENZALE - Squarciato appena avea [Nc Cantate 112 (olim 33.4.12)]"
PERFORMER "Romina Basso, Haris Andrianos, Theodora Baka, Paul Zachariades, Nikos Spanatis, Simos Papanas, George Garavounis, Latinitas Nostra, Markellos Chryssicos"
REM COMPOSER "Francesco Provenzale"
INDEX 01 49:03:09

Этот торрент недоступен для скачивания без регистрации, однако доступен по публичной magnet-ссылке (источники с публичных трекеров). Перед использованием ссылки прочтите, пожалуйста Пользовательское соглашение, а также как можно дольше оставайтесь на раздаче! Для того, чтобы скачать сам торрент-файл (который видит больше источников), а также для того, чтобы поблагодарить релизера, вам необходимо зарегистрироваться. Если регистрироваться лень - вы можете также попробовать скачать релиз по нашим партнерским ссылкам ниже. Кроме того, зарегистрированным пользователям не показывается всплывающая реклама при скачивании.

[underver.se].t156321.torrent
Трекер: Зарегистрирован   [ 04.01.2020 18:32 ]  

Статус: проверено (by Inspektor_49 at 04.01.2020 18:33)
Поблагодарили: пока никто не поблагодарил...
Тип торрента: публичный - доступные источники с открытых трекеров: 
Размер: 369 MB (занимает 0,08 DVDR, для записи нужно 1 болванка DVDR/RW)
 
 
Похожие темы
Форум Тема Автор Торрент Отв. Посл. сооб.
Сборники Pop, Disco, Dance (Classical, Piano) VA - Piano Covers: 14 Beautiful Piano Arrangements Of Pop Hits (2019) [MP3, 320 kbps CBR] 90ytr90
2 | 0

0 | 565

19

14.09.2019 07:27

Сборники Pop, Disco, Dance (Classical, Easy Listening, Jazz, Score, Ballad) VA - The Sound Of Musicals The Ultimate Collection (Box Set, 5CD) (2019) [MP3, 320 kbps CBR] Magnat
0 | 0

0 | 572

6

28.10.2019 11:46

Вокальные и хоровые искусства (Classical) Jamie Barton - All Who Wander (Mahler, Dvorak, Sibelius; Zeger) (2016) [MP3, 320 kbps CBR] Darkferse
1 | 0

0 | 1713

7

04.09.2017 21:29

Вокальные и хоровые искусства (Classical, Romantic) Elina Garanca, Orquestra de la Comunitat Valenciana, Roberto Abbado - Revive (2016) [MP3, 320 kbps CBR] Darkferse
0 | 0

0 | 1609

5

04.09.2017 21:42

Вокальные и хоровые искусства (Classical) Khoren Mekanejian - Khorenian Divine Liturgy (Choir of St. Gregory the Illuminator Cathedral) (2017) [MP3, 320 kbps CBR] Darkferse
0 | 1

0 | 1501

4

04.09.2017 22:35

Оркестровая музыка (Classical) Прокофьев - Complete Symphonies/Полное собрание Симфоний [Валерий Гергиев, London Symphony Orchestra] (2006) [MP3, 320 kbps] Jimmy
1 | 0

0 | 3909

28

18.12.2013 17:55

Оркестровая музыка (Classical) Прокофьев - Complete Piano Concertos/Полное собрание Концертов для фортепиано [Александр Торадзе, Валерий Гергиев] (1997) [MP3, 320 kbps] Jimmy
0 | 0

0 | 3968

19

19.12.2013 16:52

Оркестровая музыка (Classical) Beethoven/Бетховен - Complete Symphonies and Piano Concertos/Полное собрание Симфоний и Концертов для фортепиано [Otto Klemperer, Daniel Barenboim] (2000) [MP3, 320 kbps] Jimmy
1 | 1

0 | 4823

38

24.12.2013 15:37

Оркестровая музыка (Classical) Шостакович - Полное собрание Симфоний / Complete Symphonies (Василий Петренко / Vasily Petrenko) (2015) [MP3, 320 kbps CBR] Darkferse
1 | 0

0 | 1589

17

28.12.2017 00:17

Камерная и инструментальная музыка (Classical) Вольфганг Амадей Моцарт / Wolfgang Amadeus Mozart - Romantic Classic (1999) [MP3, 320 kbps CBR] terra07
3 | 0

1 | 5539

83

13.04.2015 16:28


Яндекс.Метрика powered by Sphinx


В Н И М А Н И Е
Сайт не распространяет и не хранит электронные версии произведений, а лишь бесплатно и без коммерческой выгоды (не требуя взамен платы,
SMS и т.д.) предоставляет доступ к создаваемому пользователями каталогу ссылок на торрент-файлы, которые содержат только списки хеш-сумм.
Убедительная просьба с жалобами обращаться напрямую к пользователю, разместившему торрент файл.

Вверх