Loading...
Error

(Progressive Rock, Crossover Prog) Damanek - Discography (2017-2018) [FLAC (Image+.CUE), Lossless]

Статистика раздачи
Размер:  864 MB   |    Зарегистрирован:  7 месяцев   |    Скачан:  2 раза

Полного источника не было: 1 месяц 6 дней

Сидов:  0  |  0 KB/s  ]   Личеров:  0  |  0 KB/s  ]

* - сиды/пиры с внешних источников

   
 
Автор Сообщение

Бишеп Пол:Муж

14-Янв-2020 07:46

Damanek - Discography

Жанр: Progressive Rock, Crossover Prog
Год выпуска: 2017-2018
Носитель: CD
Аудиокодек: FLAC
Тип рипа: Image+.CUE
Битрейт аудио: lossless
Продолжительность: 01:55:29

Albums

Производитель диска: Giant Electric Pea - GEPCD1055
Треклист:
01. Nanabohzo And The Rainbow (7:48)
02. Long Time, Shadow Falls (7:46)
03. The Cosmic Score (5:55)
04. Believer-Redeemer (5:47)
05. Oil Over Arabia (5:32)
06. Big Parade (4:14)
07. Madison Blue (3:11)
08. Dark Sun (13:42)

Exact Audio Copy V1.3 from 2. September 2016 

EAC extraction logfile from 17. August 2017, 21:06

Damanek / On Track

Used drive : ASUS DRW-24B1LT Adapter: 1 ID: 2

Read mode : Secure
Utilize accurate stream : Yes
Defeat audio cache : Yes
Make use of C2 pointers : No

Read offset correction : 6
Overread into Lead-In and Lead-Out : No
Fill up missing offset samples with silence : Yes
Delete leading and trailing silent blocks : No
Null samples used in CRC calculations : Yes
Used interface : Native Win32 interface for Win NT & 2000

Used output format : User Defined Encoder
Selected bitrate : 1024 kBit/s
Quality : High
Add ID3 tag : Yes
Command line compressor : C:\Program Files (x86)\FLAC_1.3.2\win64\flac.exe
Additional command line options : -6 -V -T "ARTIST=%artist%" -T "TITLE=%title%" -T "ALBUM=%albumtitle%" -T "DATE=%year%" -T "TRACKNUMBER=%tracknr%" -T "GENRE=%genre%" -T "COMMENT=ripped by wurensh for *другой трекер*" %source% -o %dest%

TOC of the extracted CD

Track | Start | Length | Start sector | End sector
---------------------------------------------------------
1 | 0:00.00 | 7:48.40 | 0 | 35139
2 | 7:48.40 | 7:46.49 | 35140 | 70138
3 | 15:35.14 | 5:55.62 | 70139 | 96825
4 | 21:31.01 | 5:47.55 | 96826 | 122905
5 | 27:18.56 | 5:32.68 | 122906 | 147873
6 | 32:51.49 | 4:14.69 | 147874 | 166992
7 | 37:06.43 | 3:11.72 | 166993 | 181389
8 | 40:18.40 | 13:42.64 | 181390 | 243103

Range status and errors

Selected range

Filename Y:\EAC\wurensh\Damanek\Damanek - On Track.wav

Peak level 100.0 %
Extraction speed 8.2 X
Range quality 100.0 %
Test CRC B22AD3C5
Copy CRC B22AD3C5
Copy OK

No errors occurred

AccurateRip summary
Track 1 not present in database
Track 2 not present in database
Track 3 not present in database
Track 4 not present in database
Track 5 not present in database
Track 6 not present in database
Track 7 not present in database
Track 8 not present in database
None of the tracks are present in the AccurateRip database

End of status report

---- CUETools DB Plugin V2.1.6

[CTDB TOCID: 8TxuLN3TieGc1Gnfscht.SHZOek-] found
Submit result: 8TxuLN3TieGc1Gnfscht.SHZOek- has been confirmed
Track | CTDB Status
1 | (4/4) Accurately ripped
2 | (4/4) Accurately ripped
3 | (4/4) Accurately ripped
4 | (4/4) Accurately ripped
5 | (4/4) Accurately ripped
6 | (4/4) Accurately ripped
7 | (4/4) Accurately ripped
8 | (3/4) Accurately ripped

==== Log checksum 4166829246DD732FD6A93C176EE55EC77CF01AA04826E0403CF0B53BFCCCDFD0 ====
REM GENRE "Progressive Rock" 
REM DATE 2017
REM DISCID 640CA908
REM COMMENT "ExactAudioCopy v1.3"
PERFORMER "Damanek"
TITLE "On Track"
REM COMPOSER "Lossless Group release"
FILE "Damanek - On Track.flac" WAVE
TRACK 01 AUDIO
TITLE "Nanabohzo And The Rainbow"
PERFORMER "Damanek"
REM COMPOSER "Lossless Group release"
INDEX 01 00:00:00
TRACK 02 AUDIO
TITLE "Long Time, Shadow Falls"
PERFORMER "Damanek"
REM COMPOSER "Lossless Group release"
INDEX 01 07:48:40
TRACK 03 AUDIO
TITLE "The Cosmic Score"
PERFORMER "Damanek"
REM COMPOSER "Lossless Group release"
INDEX 00 15:33:43
INDEX 01 15:35:14
TRACK 04 AUDIO
TITLE "Believer-Redeemer"
PERFORMER "Damanek"
REM COMPOSER "Lossless Group release"
INDEX 00 21:28:67
INDEX 01 21:31:01
TRACK 05 AUDIO
TITLE "Oil Over Arabia"
PERFORMER "Damanek"
REM COMPOSER "Lossless Group release"
INDEX 01 27:18:56
TRACK 06 AUDIO
TITLE "Big Parade"
PERFORMER "Damanek"
REM COMPOSER "Lossless Group release"
INDEX 00 32:49:19
INDEX 01 32:51:49
TRACK 07 AUDIO
TITLE "Madison Blue"
PERFORMER "Damanek"
REM COMPOSER "Lossless Group release"
INDEX 00 37:03:43
INDEX 01 37:06:43
TRACK 08 AUDIO
TITLE "Dark Sun"
PERFORMER "Damanek"
REM COMPOSER "Lossless Group release"
INDEX 01 40:18:40

Производитель диска: Giant Electric Pea - GEPCD1059
Треклист:
01. Ragusa (5:18)
02. Skyboat (5:47)
03. The Crawler (8:51)
04. Moon-Catcher (4:38)
05. The Crossing (7:11)
06. Beg Eastern: Pt.1 - Cruel Skies (12:02)
07. Big Eastern: Pt.2 - The Shaking Earth (10:36)
08. Big Eastern: Pt.3 - A Life In Chinatown (7:04)


Exact Audio Copy V1.3 from 2. September 2016 

EAC extraction logfile from 8. January 2019, 18:02

Damanek / In Flight

Used drive : ASUS DRW-24B1LT Adapter: 1 ID: 2

Read mode : Secure
Utilize accurate stream : Yes
Defeat audio cache : Yes
Make use of C2 pointers : No

Read offset correction : 6
Overread into Lead-In and Lead-Out : No
Fill up missing offset samples with silence : Yes
Delete leading and trailing silent blocks : No
Null samples used in CRC calculations : Yes
Used interface : Native Win32 interface for Win NT & 2000

Used output format : User Defined Encoder
Selected bitrate : 1024 kBit/s
Quality : High
Add ID3 tag : No
Command line compressor : C:\Program Files (x86)\FLAC_1.3.2\win64\flac.exe
Additional command line options : -6 -V -T "ARTIST=%artist%" -T "TITLE=%title%" -T "ALBUM=%albumtitle%" -T "DATE=%year%" -T "TRACKNUMBER=%tracknr%" -T "GENRE=%genre%" -T "COMMENT=ripped by wurensh for *другой трекер*" %source% -o %dest%

TOC of the extracted CD

Track | Start | Length | Start sector | End sector
---------------------------------------------------------
1 | 0:00.00 | 5:17.71 | 0 | 23845
2 | 5:17.71 | 5:47.24 | 23846 | 49894
3 | 11:05.20 | 8:50.50 | 49895 | 89694
4 | 19:55.70 | 4:38.13 | 89695 | 110557
5 | 24:34.08 | 7:10.68 | 110558 | 142875
6 | 31:45.01 | 12:02.28 | 142876 | 197053
7 | 43:47.29 | 10:35.73 | 197054 | 244751
8 | 54:23.27 | 7:04.25 | 244752 | 276576

Range status and errors

Selected range

Filename Y:\EAC\wurensh\Damanek\Damanek - In Flight.wav

Peak level 100.0 %
Extraction speed 8.8 X
Range quality 100.0 %
Test CRC 4FB701FE
Copy CRC 4FB701FE
Copy OK

No errors occurred

AccurateRip summary
Track 1 accurately ripped (confidence 3) [03F06406] (AR v2)
Track 2 accurately ripped (confidence 3) [35CF918D] (AR v2)
Track 3 accurately ripped (confidence 3) [FC8F4678] (AR v2)
Track 4 accurately ripped (confidence 3) [EA8B9BEC] (AR v2)
Track 5 accurately ripped (confidence 3) [C5A02A71] (AR v2)
Track 6 accurately ripped (confidence 3) [D6705593] (AR v2)
Track 7 accurately ripped (confidence 3) [B9B656BD] (AR v2)
Track 8 accurately ripped (confidence 3) [318FD875] (AR v2)
All tracks accurately ripped

End of status report

==== Log checksum 79CD2E97CE1EDC4683363BD3490E83ECF32455C77F49E046C2E4719B6581EC5C ====
REM GENRE "Crossover Progressive" 
REM DATE 2018
REM DISCID 7A0E6708
REM COMMENT "ExactAudioCopy v1.3"
PERFORMER "Damanek"
TITLE "In Flight"
REM COMPOSER "Lossless Group release"
FILE "Damanek - In Flight.flac" WAVE
TRACK 01 AUDIO
TITLE "Ragusa"
PERFORMER "Damanek"
REM COMPOSER "Lossless Group release"
ISRC TbL5J1800192
INDEX 01 00:00:00
TRACK 02 AUDIO
TITLE "Skyboat"
PERFORMER "Damanek"
REM COMPOSER "Lossless Group release"
ISRC TbL5J1800193
INDEX 01 05:17:71
TRACK 03 AUDIO
TITLE "The Crawler"
PERFORMER "Damanek"
REM COMPOSER "Lossless Group release"
ISRC TbL5J1800194
INDEX 01 11:05:20
TRACK 04 AUDIO
TITLE "Moon-Catcher"
PERFORMER "Damanek"
REM COMPOSER "Lossless Group release"
ISRC TbL5J1800195
INDEX 01 19:55:70
TRACK 05 AUDIO
TITLE "The Crossing"
PERFORMER "Damanek"
REM COMPOSER "Lossless Group release"
ISRC TbL5J1800196
INDEX 00 24:33:01
INDEX 01 24:34:08
TRACK 06 AUDIO
TITLE "Big Eastern: Pt.1 - Cruel Skies"
PERFORMER "Damanek"
REM COMPOSER "Lossless Group release"
ISRC TbL5J1800197
INDEX 01 31:45:01
TRACK 07 AUDIO
TITLE "Big Eastern: Pt.2 - The Shaking Earth"
PERFORMER "Damanek"
REM COMPOSER "Lossless Group release"
ISRC TbL5J1800198
INDEX 01 43:47:29
TRACK 08 AUDIO
TITLE "Big Eastern: Pt.3 - A Life in Chinatown"
PERFORMER "Damanek"
REM COMPOSER "Lossless Group release"
ISRC TbL5J1800199
INDEX 01 54:23:27

Этот торрент недоступен для скачивания без регистрации, однако доступен по публичной magnet-ссылке (источники с публичных трекеров). Перед использованием ссылки прочтите, пожалуйста Пользовательское соглашение, а также как можно дольше оставайтесь на раздаче! Для того, чтобы скачать сам торрент-файл (который видит больше источников), а также для того, чтобы поблагодарить релизера, вам необходимо зарегистрироваться. Если регистрироваться лень - вы можете также попробовать скачать релиз по нашим партнерским ссылкам ниже. Кроме того, зарегистрированным пользователям не показывается всплывающая реклама при скачивании.

[underver.se].t157078.torrent
Трекер: Зарегистрирован   [ 14.01.2020 07:46 ]  

Статус: проверено (by Бишеп at 14.01.2020 07:46)
Поблагодарили: пока никто не поблагодарил...
Тип торрента: публичный - доступные источники с открытых трекеров: 
Размер: 864 MB (занимает 0,19 DVDR, для записи нужно 1 болванка DVDR/RW)
 
 
Похожие темы
Форум Тема Автор Торрент Отв. Посл. сооб.
Зарубежный Hard, Progressive, Soft, Melodic, AOR, Folk, Classic Rock (Progressive Rock) Pink Floyd - Echoes: The Best of Pink Floyd (2001) [iTunes AAC M4A, 256 kbps VBR] Web garry
0 | 0

1 | 5814

12

18.06.2009 21:26

Зарубежный Hard, Progressive, Soft, Melodic, AOR, Folk, Classic Rock (Progressive Rock) Liquid Blue Thursdays - Redacted Essays From Nowhere (2017) [MP3, 320 kbps CBR] Darkferse
0 | 0

0 | 1540

7

04.04.2017 15:21

Зарубежный Hard, Progressive, Soft, Melodic, AOR, Folk, Classic Rock (Progressive Rock) Family Free Rock - In Full Swing (2017) [MP3, 320 kbps CBR] Darkferse
0 | 0

0 | 1306

4

05.06.2017 09:20

Зарубежный Hard, Progressive, Soft, Melodic, AOR, Folk, Classic Rock (Progressive, Art-Rock) VA - The Many Faces of Pink Floyd: A Journey Through The Inner World of Pink Floyd (2013) (3CD) [MP3, 320 kbps CBR] saw444
1 | 0

3 | 2508

34

29.12.2013 06:14

Зарубежный Hard, Progressive, Soft, Melodic, AOR, Folk, Classic Rock (Progressive Rock) Asia - Gravitas [Deluxe Edition] (2014) [MP3 (tracks), 320 kbps] Jimmy
0 | 0

0 | 2874

21

22.03.2014 17:23

Зарубежный Hard, Progressive, Soft, Melodic, AOR, Folk, Classic Rock (Progressive Rock) Akrasy - Tsunami: Love (2016) [MP3, 320 kbps CBR] Darkferse
0 | 0

0 | 1519

4

11.12.2016 14:19

Зарубежный Hard, Progressive, Soft, Melodic, AOR, Folk, Classic Rock (Progressive Rock, Hard Rock) Chris Brockbank's Phantom MkV - Phantom (2017) [MP3, 320 kbps CBR] Darkferse
0 | 1

0 | 1318

3

05.06.2017 09:17

Зарубежный Hard, Progressive, Soft, Melodic, AOR, Folk, Classic Rock (Progressive Rock) Elephant Plaza - Momentum (2016) [MP3, 320 kbps CBR] IronMan
0 | 1

0 | 1699

5

26.06.2016 17:08

Зарубежный Hard, Progressive, Soft, Melodic, AOR, Folk, Classic Rock (Progressive Rock) The Watch - Seven (2017) [MP3, 320 kbps CBR] Darkferse
0 | 0

0 | 1863

6

29.05.2017 18:50

Зарубежный Hard, Progressive, Soft, Melodic, AOR, Folk, Classic Rock (Progressive Rock, Stoner Rock) Brieg Guerveno - Valgori (2016) [MP3, 320 kbps CBR] Darkferse
0 | 0

0 | 1414

2

09.01.2017 09:41


Яндекс.Метрика powered by Sphinx


В Н И М А Н И Е
Сайт не распространяет и не хранит электронные версии произведений, а лишь бесплатно и без коммерческой выгоды (не требуя взамен платы,
SMS и т.д.) предоставляет доступ к создаваемому пользователями каталогу ссылок на торрент-файлы, которые содержат только списки хеш-сумм.
Убедительная просьба с жалобами обращаться напрямую к пользователю, разместившему торрент файл.

Вверх