Loading...
Error

(Crossover Prog) Tea For Two - 101 (2000/2001) [FLAC (Image+.Cue), Lossless]

Статистика раздачи
Размер:  307 MB   |    Зарегистрирован:  7 месяцев   |    Скачан:  3 раза

Полного источника не было: 3 месяца

Сидов:  0  |  0 KB/s  ]   Личеров:  0  |  0 KB/s  ]

* - сиды/пиры с внешних источников

   
 
Автор Сообщение

Бишеп Пол:Муж

14-Янв-2020 08:03

Tea For Two - 101

Жанр: Crossover Prog
Год выпуска: 2000/2001
Носитель: CD
Производитель диска: QuiXote Music - QXT CD 12
Аудиокодек: FLAC
Тип рипа: Image+.CUE
Битрейт аудио: lossless
Продолжительность: 00:47:55


Треклист:
01. Drifting Apart (4:02)
02. Heaven (6:08)
03. Between the Lines (3:45)
04. 101 (11:13)
05. Bitter Sweet (1:41)
06. All Too Late (4:53)
07. Torn in Two (4:20)
08. The Plan (2:52)
09. Crossing the Edge (1:46)
10. Last Piece (7:15)

Exact Audio Copy V0.99 prebeta 5 from 4. May 2009 

Отчёт EAC об извлечении, выполненном 18. июня 2013, 23:13

Tea For Two / 101

Дисковод: _NEC DVD_RW ND-3550A Adapter: 0 ID: 1

Режим чтения : Достоверность
Использование точного потока : Да
Отключение кэша аудио : Да
Использование указателей C2 : Нет

Коррекция смещения при чтении : 48
Способность читать области Lead-in и Lead-out : Нет
Заполнение пропущенных сэмплов тишиной : Да
Удаление блоков с тишиной в начале и конце : Нет
При вычислениях CRC использовались нулевые сэмплы : Да
Интерфейс : Встроенный Win32-интерфейс для Win NT/2000

Выходной формат : Пользовательский кодировщик
Выбранный битрейт : 1024 kBit/s
Качество : Высокий
Добавление ID3-тэга : Да
Утилита сжатия : C:\Program Files\FLAC\flac.exe
Дополнительные параметры : -6 -V -T "ARTIST=%a" -T "TITLE=%t" -T "ALBUM=%g" -T "DATE=%y" -T "TRACKNUMBER=%n" -T "GENRE=%m" -T "COMMENT=%e" %s -o %d

TOC извлечённого CD

Трек | Старт | Длительность | Начальный сектор | Конечный сектор
---------------------------------------------------------------------
1 | 0:00.00 | 4:01.67 | 0 | 18141
2 | 4:01.67 | 6:08.35 | 18142 | 45776
3 | 10:10.27 | 3:43.48 | 45777 | 62549
4 | 13:54.00 | 11:13.00 | 62550 | 113024
5 | 25:07.00 | 1:41.00 | 113025 | 120599
6 | 26:48.00 | 4:52.00 | 120600 | 142499
7 | 31:40.00 | 4:21.00 | 142500 | 162074
8 | 36:01.00 | 2:52.00 | 162075 | 174974
9 | 38:53.00 | 1:45.00 | 174975 | 182849
10 | 40:38.00 | 7:12.65 | 182850 | 215314

Характеристики диапазона извлечения и сообщения об ошибках

Выбранный диапазон

Имя файла D:\Users\Desktop\Tea For Two - 101.wav

Пиковый уровень 96.6 %
Качество диапазона 99,9 %
CRC копии A17D246F
Копирование... OK

Ошибок не произошло

AccurateRip: сводка
Трек 1 точное извлечение (доверие 4) [B02D3DB8]
Трек 2 точное извлечение (доверие 4) [97DCB029]
Трек 3 точное извлечение (доверие 4) [AEA6B19B]
Трек 4 точное извлечение (доверие 4) [6CFD4D0C]
Трек 5 точное извлечение (доверие 4) [83706615]
Трек 6 точное извлечение (доверие 4) [88908585]
Трек 7 точное извлечение (доверие 4) [378AB0A1]
Трек 8 точное извлечение (доверие 4) [02E5467A]
Трек 9 точное извлечение (доверие 4) [32F726D1]
Трек 10 точное извлечение (доверие 4) [55AC36CC]
Все треки извлечены точно

Конец отчёта
REM GENRE "Progressive Rock" 
REM DATE 2000
REM DISCID 6B0B360A
REM COMMENT "ExactAudioCopy v0.99pb5"
PERFORMER "Tea For Two"
TITLE "101"
FILE "Tea For Two - 101.flac" WAVE
TRACK 01 AUDIO
TITLE "Drifting Apart"
PERFORMER "Tea For Two"
INDEX 01 00:00:00
TRACK 02 AUDIO
TITLE "Heaven (For Noone Else But Me)"
PERFORMER "Tea For Two"
INDEX 01 04:01:67
TRACK 03 AUDIO
TITLE "Between The Lines"
PERFORMER "Tea For Two"
INDEX 01 10:10:27
TRACK 04 AUDIO
TITLE "101"
PERFORMER "Tea For Two"
INDEX 01 13:54:00
TRACK 05 AUDIO
TITLE "Bitter Sweet"
PERFORMER "Tea For Two"
INDEX 01 25:07:00
TRACK 06 AUDIO
TITLE "All Too Late"
PERFORMER "Tea For Two"
INDEX 01 26:48:00
TRACK 07 AUDIO
TITLE "Torn In Two"
PERFORMER "Tea For Two"
INDEX 01 31:40:00
TRACK 08 AUDIO
TITLE "The Plan"
PERFORMER "Tea For Two"
INDEX 01 36:01:00
TRACK 09 AUDIO
TITLE "Crossing The Edge"
PERFORMER "Tea For Two"
INDEX 01 38:53:00
TRACK 10 AUDIO
TITLE "Last Piece"
PERFORMER "Tea For Two"
INDEX 01 40:38:00

Этот торрент недоступен для скачивания без регистрации, однако доступен по публичной magnet-ссылке (источники с публичных трекеров). Перед использованием ссылки прочтите, пожалуйста Пользовательское соглашение, а также как можно дольше оставайтесь на раздаче! Для того, чтобы скачать сам торрент-файл (который видит больше источников), а также для того, чтобы поблагодарить релизера, вам необходимо зарегистрироваться. Если регистрироваться лень - вы можете также попробовать скачать релиз по нашим партнерским ссылкам ниже. Кроме того, зарегистрированным пользователям не показывается всплывающая реклама при скачивании.

[underver.se].t157082.torrent
Трекер: Зарегистрирован   [ 14.01.2020 08:03 ]  

Статус: проверено (by Бишеп at 14.01.2020 08:03)
Поблагодарили: пока никто не поблагодарил...
Тип торрента: публичный - доступные источники с открытых трекеров: 
Размер: 307 MB (занимает 0,07 DVDR, для записи нужно 1 болванка DVDR/RW)
 
 
Похожие темы
Форум Тема Автор Торрент Отв. Посл. сооб.
Зарубежный Hard, Progressive, Soft, Melodic, AOR, Folk, Classic Rock (Crossover Progressive Rock) The Pineapple Thief - Where We Stood (In Concert) (2017) [MP3, 320 kbps CBR] Darkferse
0 | 0

0 | 1330

4

12.09.2017 17:40

Зарубежный Hard, Progressive, Soft, Melodic, AOR, Folk, Classic Rock (Crossover Progressive Rock) Lee Abraham (Ex-Galahad) - Discography (2004-2017) [MP3, 320 kbps CBR] Darkferse
0 | 0

0 | 1257

2

27.12.2017 22:54

Зарубежный Hard, Progressive, Soft, Melodic, AOR, Folk, Classic Rock (Crossover Progressive Rock) Machines Dream - Discography (2011-2017) [MP3, 320 kbps CBR] Darkferse
0 | 0

0 | 753

1

04.01.2018 22:24

Зарубежный Hard, Progressive, Soft, Melodic, AOR, Folk, Classic Rock (Crossover Progressive Rock) Pymlico - Nightscape (2018) [MP3, 320 kbps CBR] 90ytr90
0 | 0

0 | 520

1

13.10.2018 23:15

Зарубежный Hard, Progressive, Soft, Melodic, AOR, Folk, Classic Rock (Crossover Prog) 3.2 - The Rules Have Changed [Japanese Edition] (2018) [MP3, 320 kbps CBR] 90ytr90
0 | 0

0 | 548

2

14.10.2018 15:49

Зарубежный Hard, Progressive, Soft, Melodic, AOR, Folk, Classic Rock (Crossover Progressive Rock) Pavlov's Dog - Prodigal Dreamer (2018) [MP3, 320 kbps CBR] 90ytr90
0 | 0

0 | 498

2

06.12.2018 19:23

Зарубежный Hard, Progressive, Soft, Melodic, AOR, Folk, Classic Rock (Crossover Prog) Riven Earth - Project One (2018) [MP3, 320 kbps CBR] 90ytr90
0 | 0

0 | 1043

1

28.12.2018 17:19

Зарубежный Hard, Progressive, Soft, Melodic, AOR, Folk, Classic Rock (Crossover Progressive Rock) Walfad - Colloids (2018) [MP3, 320 kbps CBR] 90ytr90
0 | 0

0 | 773

2

30.12.2018 16:27

Зарубежный Black, Death, Heavy, Thrash, Power, Folk, Gothic Metal (Crossover, Thrash Metal) Fullminator - Crackattack (2018) [MP3, 320 kbps CBR] 90ytr90
0 | 0

0 | 536

1

30.09.2018 17:25

Зарубежный Punk, Hardcore, Grunge, Alternative (Crossover, Rapcore) Dog Eat Dog - Brand New Breed [EP] (2017) [MP3, 128 kbps CBR] Darkferse
0 | 0

0 | 1048

1

26.04.2017 14:21


Яндекс.Метрика powered by Sphinx


В Н И М А Н И Е
Сайт не распространяет и не хранит электронные версии произведений, а лишь бесплатно и без коммерческой выгоды (не требуя взамен платы,
SMS и т.д.) предоставляет доступ к создаваемому пользователями каталогу ссылок на торрент-файлы, которые содержат только списки хеш-сумм.
Убедительная просьба с жалобами обращаться напрямую к пользователю, разместившему торрент файл.

Вверх