Loading...
Error

(Progressive Rock, Neo-Prog) Huis - Abandoned (2019) [FLAC (Tracks+.Cue), Lossless]

Статистика раздачи
Размер:  595 MB   |    Зарегистрирован:  10 дней   |    Скачан:  2 раза

Полного источника не было: 3 дня

Сидов:  0  |  0 KB/s  ]   Личеров:  0  |  0 KB/s  ]

* - сиды/пиры с внешних источников

   
 
Автор Сообщение

Бишеп Пол:Муж

14-Янв-2020 08:31

Huis - Abandoned

Жанр: Progressive Rock, Neo-Prog
Год выпуска: 2019
Носитель: CD
Производитель диска: Unicorn Digital - UNCR-5096
Аудиокодек: FLAC
Тип рипа: Tracks+.CUE
Битрейт аудио: lossless
Продолжительность: 01:12:34


Треклист:
01. Abandoned (8:24)
02. The Giant Awakens (5:26)
03. Caducée (12:49)
04. Stolen (11:41)
05. Solilude (3:03)
06. Chasing Morning Glory (9:49)
07. Haunting Days (5:38)
08. We Are Not Alone (6:18)
09. Oude Kerk III (9:26)

Exact Audio Copy V1.1 from 23. June 2015 

EAC extraction logfile from 17. May 2019, 20:28

Huis / Abandoned

Used drive : MATSHITADVD+-RW UJ8E2 Adapter: 1 ID: 0

Read mode : Secure
Utilize accurate stream : Yes
Defeat audio cache : Yes
Make use of C2 pointers : No

Read offset correction : 103
Overread into Lead-In and Lead-Out : No
Fill up missing offset samples with silence : Yes
Delete leading and trailing silent blocks : No
Null samples used in CRC calculations : Yes
Used interface : Native Win32 interface for Win NT & 2000
Gap handling : Appended to previous track

Used output format : User Defined Encoder
Selected bitrate : 768 kBit/s
Quality : High
Add ID3 tag : No
Command line compressor : C:\Program Files (x86)\Exact Audio Copy\FLAC\FLAC.EXE
Additional command line options : -8 -V -T "ARTIST=%artist%" -T "TITLE=%title%" -T "ALBUM=%albumtitle%" -T "DATE=%year%" -T "TRACKNUMBER=%tracknr%" -T "TOTALTRACKS=%numtracks%" -T "GENRE=%genre%" -T "ALBUMARTIST=%albumartist%" -T "ALBUM ARTIST=%albumartist%" -T "COMMENT=EAC Secure Mode, Test & Copy, AccurateRip, FLAC -8" %source%

TOC of the extracted CD

Track | Start | Length | Start sector | End sector
---------------------------------------------------------
1 | 0:00.00 | 8:22.45 | 0 | 37694
2 | 8:22.45 | 5:26.10 | 37695 | 62154
3 | 13:48.55 | 12:49.37 | 62155 | 119866
4 | 26:38.17 | 11:41.31 | 119867 | 172472
5 | 38:19.48 | 3:03.41 | 172473 | 186238
6 | 41:23.14 | 9:48.55 | 186239 | 230393
7 | 51:11.69 | 5:38.24 | 230394 | 255767
8 | 56:50.18 | 6:17.69 | 255768 | 284111
9 | 63:08.12 | 9:26.20 | 284112 | 326581

Track 1

Filename C:\bzp01\Huis - Abandoned (2019) [FLAC] {UNCR-5096}\01 - Abandoned.wav

Pre-gap length 0:00:02.00

Peak level 98.3 %
Extraction speed 2.8 X
Track quality 100.0 %
Test CRC 7FF720C3
Copy CRC 7FF720C3
Accurately ripped (confidence 1) [E52A1F71] (AR v2)
Copy OK

Track 2

Filename C:\bzp01\Huis - Abandoned (2019) [FLAC] {UNCR-5096}\02 - The Giant Awakens.wav

Peak level 98.3 %
Extraction speed 3.1 X
Track quality 100.0 %
Test CRC A12597B1
Copy CRC A12597B1
Accurately ripped (confidence 1) [745C408B] (AR v2)
Copy OK

Track 3

Filename C:\bzp01\Huis - Abandoned (2019) [FLAC] {UNCR-5096}\03 - Caducee.wav

Peak level 98.3 %
Extraction speed 3.8 X
Track quality 100.0 %
Test CRC 78F325BD
Copy CRC 78F325BD
Accurately ripped (confidence 1) [DDFC8A90] (AR v2)
Copy OK

Track 4

Filename C:\bzp01\Huis - Abandoned (2019) [FLAC] {UNCR-5096}\04 - Stolen.wav

Peak level 98.3 %
Extraction speed 4.4 X
Track quality 100.0 %
Test CRC 40D917BC
Copy CRC 40D917BC
Accurately ripped (confidence 1) [F41E055A] (AR v2)
Copy OK

Track 5

Filename C:\bzp01\Huis - Abandoned (2019) [FLAC] {UNCR-5096}\05 - Solilude.wav

Peak level 98.3 %
Extraction speed 4.1 X
Track quality 100.0 %
Test CRC 8B0E028A
Copy CRC 8B0E028A
Accurately ripped (confidence 1) [23BDF5FF] (AR v2)
Copy OK

Track 6

Filename C:\bzp01\Huis - Abandoned (2019) [FLAC] {UNCR-5096}\06 - Chasing Morning Glory.wav

Peak level 98.3 %
Extraction speed 4.5 X
Track quality 100.0 %
Test CRC 8DBA787E
Copy CRC 8DBA787E
Accurately ripped (confidence 1) [23F6EB37] (AR v2)
Copy OK

Track 7

Filename C:\bzp01\Huis - Abandoned (2019) [FLAC] {UNCR-5096}\07 - Haunting Days.wav

Peak level 98.3 %
Extraction speed 3.7 X
Track quality 99.9 %
Test CRC 45CAA6EC
Copy CRC 45CAA6EC
Accurately ripped (confidence 1) [9C2B5FB5] (AR v2)
Copy OK

Track 8

Filename C:\bzp01\Huis - Abandoned (2019) [FLAC] {UNCR-5096}\08 - We Are Not Alone.wav

Peak level 98.3 %
Extraction speed 5.1 X
Track quality 100.0 %
Test CRC E44B4B6C
Copy CRC E44B4B6C
Accurately ripped (confidence 1) [C5B1A165] (AR v2)
Copy OK

Track 9

Filename C:\bzp01\Huis - Abandoned (2019) [FLAC] {UNCR-5096}\09 - Oude Kerk III.wav

Peak level 98.3 %
Extraction speed 5.6 X
Track quality 100.0 %
Test CRC 200BFC55
Copy CRC 200BFC55
Accurately ripped (confidence 1) [F299901A] (AR v2)
Copy OK

All tracks accurately ripped

No errors occurred

End of status report

---- CUETools DB Plugin V2.1.6

[CTDB TOCID: XhtwpS4drAz9pjWu04jVVgy8qeY-] found
Submit result: XhtwpS4drAz9pjWu04jVVgy8qeY- has been confirmed
Track | CTDB Status
1 | (3/3) Accurately ripped
2 | (3/3) Accurately ripped
3 | (3/3) Accurately ripped
4 | (3/3) Accurately ripped
5 | (3/3) Accurately ripped
6 | (3/3) Accurately ripped
7 | (3/3) Accurately ripped
8 | (3/3) Accurately ripped
9 | (3/3) Accurately ripped

==== Log checksum 3796DEB335426F935B0101865D7BABDB5323E6A91094A9E2B5B3C23B3C559FB0 ====
REM GENRE "Progressive Rock" 
REM DATE 2019
REM DISCID 60110209
REM COMMENT "ExactAudioCopy v1.1"
PERFORMER "Huis"
TITLE "Abandoned"
FILE "01 - Abandoned.wav" WAVE
TRACK 01 AUDIO
TITLE "Abandoned"
PERFORMER "Huis"
FLAGS DCP
INDEX 01 00:00:00
FILE "02 - The Giant Awakens.wav" WAVE
TRACK 02 AUDIO
TITLE "The Giant Awakens"
PERFORMER "Huis"
FLAGS DCP
INDEX 01 00:00:00
FILE "03 - Caducee.wav" WAVE
TRACK 03 AUDIO
TITLE "Caducee"
PERFORMER "Huis"
FLAGS DCP
INDEX 01 00:00:00
FILE "04 - Stolen.wav" WAVE
TRACK 04 AUDIO
TITLE "Stolen"
PERFORMER "Huis"
FLAGS DCP
INDEX 01 00:00:00
FILE "05 - Solilude.wav" WAVE
TRACK 05 AUDIO
TITLE "Solilude"
PERFORMER "Huis"
FLAGS DCP
INDEX 01 00:00:00
FILE "06 - Chasing Morning Glory.wav" WAVE
TRACK 06 AUDIO
TITLE "Chasing Morning Glory"
PERFORMER "Huis"
FLAGS DCP
INDEX 01 00:00:00
FILE "07 - Haunting Days.wav" WAVE
TRACK 07 AUDIO
TITLE "Haunting Days"
PERFORMER "Huis"
FLAGS DCP
INDEX 01 00:00:00
FILE "08 - We Are Not Alone.wav" WAVE
TRACK 08 AUDIO
TITLE "We Are Not Alone"
PERFORMER "Huis"
FLAGS DCP
INDEX 01 00:00:00
FILE "09 - Oude Kerk III.wav" WAVE
TRACK 09 AUDIO
TITLE "Oude Kerk III"
PERFORMER "Huis"
FLAGS DCP
INDEX 01 00:00:00

Этот торрент недоступен для скачивания без регистрации, однако доступен по публичной magnet-ссылке (источники с публичных трекеров). Перед использованием ссылки прочтите, пожалуйста Пользовательское соглашение, а также как можно дольше оставайтесь на раздаче! Для того, чтобы скачать сам торрент-файл (который видит больше источников), а также для того, чтобы поблагодарить релизера, вам необходимо зарегистрироваться. Если регистрироваться лень - вы можете также попробовать скачать релиз по нашим партнерским ссылкам ниже. Кроме того, зарегистрированным пользователям не показывается всплывающая реклама при скачивании.

[underver.se].t157085.torrent
Трекер: Зарегистрирован   [ 14.01.2020 08:31 ]  

Статус: проверено (by Бишеп at 14.01.2020 08:32)
Поблагодарили: пока никто не поблагодарил...
Тип торрента: публичный - доступные источники с открытых трекеров: 
Размер: 595 MB (занимает 0,13 DVDR, для записи нужно 1 болванка DVDR/RW)
 
 
Похожие темы
Форум Тема Автор Торрент Отв. Посл. сооб.
Зарубежный Hard, Progressive, Soft, Melodic, AOR, Folk, Classic Rock (Progressive Rock) Pink Floyd - Echoes: The Best of Pink Floyd (2001) [iTunes AAC M4A, 256 kbps VBR] Web garry
1 | 1

1 | 5597

11

18.06.2009 21:26

Зарубежный Hard, Progressive, Soft, Melodic, AOR, Folk, Classic Rock (Progressive Rock) Liquid Blue Thursdays - Redacted Essays From Nowhere (2017) [MP3, 320 kbps CBR] Darkferse
1 | 1

0 | 1317

7

04.04.2017 15:21

Зарубежный Hard, Progressive, Soft, Melodic, AOR, Folk, Classic Rock (Progressive Rock) Family Free Rock - In Full Swing (2017) [MP3, 320 kbps CBR] Darkferse
2 | 0

0 | 1127

3

05.06.2017 09:20

Зарубежный Hard, Progressive, Soft, Melodic, AOR, Folk, Classic Rock (Progressive, Art-Rock) VA - The Many Faces of Pink Floyd: A Journey Through The Inner World of Pink Floyd (2013) (3CD) [MP3, 320 kbps CBR] saw444
1 | 0

3 | 2305

33

29.12.2013 06:14

Зарубежный Hard, Progressive, Soft, Melodic, AOR, Folk, Classic Rock (Progressive Rock) Asia - Gravitas [Deluxe Edition] (2014) [MP3 (tracks), 320 kbps] Jimmy
0 | 0

0 | 2641

21

22.03.2014 17:23

Зарубежный Hard, Progressive, Soft, Melodic, AOR, Folk, Classic Rock (Progressive Rock) Akrasy - Tsunami: Love (2016) [MP3, 320 kbps CBR] Darkferse
1 | 0

0 | 1367

4

11.12.2016 14:19

Зарубежный Hard, Progressive, Soft, Melodic, AOR, Folk, Classic Rock (Progressive Rock, Hard Rock) Chris Brockbank's Phantom MkV - Phantom (2017) [MP3, 320 kbps CBR] Darkferse
1 | 0

0 | 1157

3

05.06.2017 09:17

Зарубежный Hard, Progressive, Soft, Melodic, AOR, Folk, Classic Rock (Progressive Rock) Elephant Plaza - Momentum (2016) [MP3, 320 kbps CBR] IronMan
0 | 0

0 | 1492

4

26.06.2016 17:08

Зарубежный Hard, Progressive, Soft, Melodic, AOR, Folk, Classic Rock (Progressive Rock) The Watch - Seven (2017) [MP3, 320 kbps CBR] Darkferse
0 | 1

0 | 1647

5

29.05.2017 18:50

Зарубежный Hard, Progressive, Soft, Melodic, AOR, Folk, Classic Rock (Progressive Rock, Stoner Rock) Brieg Guerveno - Valgori (2016) [MP3, 320 kbps CBR] Darkferse
2 | 0

0 | 1273

2

09.01.2017 09:41


Яндекс.Метрика powered by Sphinx


В Н И М А Н И Е
Сайт не распространяет и не хранит электронные версии произведений, а лишь бесплатно и без коммерческой выгоды (не требуя взамен платы,
SMS и т.д.) предоставляет доступ к создаваемому пользователями каталогу ссылок на торрент-файлы, которые содержат только списки хеш-сумм.
Убедительная просьба с жалобами обращаться напрямую к пользователю, разместившему торрент файл.

Вверх