Loading...
Error

(Swing, Vocal Jazz) Slim Gaillard - The Chronological Classics: 1951-1953 (2007) [FLAC (Tracks+.Cue), Lossless]

Статистика раздачи
Размер:  132 MB   |    Зарегистрирован:  10 дней   |    Скачан:  3 раза

Полного источника не было: 6 дней

Сидов:  0  |  0 KB/s  ]   Личеров:  0  |  0 KB/s  ]

* - сиды/пиры с внешних источников

   
 
Автор Сообщение

Бишеп Пол:Муж

14-Янв-2020 14:46

Slim Gaillard - The Chronological Classics: 1951-1953

Жанр: Swing, Vocal Jazz
Год выпуска: 2007
Носитель: CD
Производитель диска: Classics - CLASSICS 1437
Аудиокодек: FLAC
Тип рипа: Tracks+.CUE
Битрейт аудио: lossless
Продолжительность: 00:50:19


Треклист:
01. For You (2:57)
02. Yip Roc Heresy (2:33)
03. The Hip Cowboy (2:45)
04. Chicken Rhythm (2:32)
05. I Only Have Eyes for You (2:37)
06. As You Are (2:32)
07. St. Louis Blues (2:22)
08. I Know What to Do (2:35)
09. Taxpayers Blues (2:29)
10. Eatin' with the Boogie (2:32)
11. Make It Do (2:52)
12. You Goofed (2:48)
13. I Can't Give You Anything But Love (2:40)
14. This Is My Love (2:35)
15. Gomen Nasai (2:35)
16. Patato Chips (3:07)
17. I'm in the Mood for Love (2:41)
18. Mishugana Mambo (2:23)
19. Go, Man, Go (2:44)

X Lossless Decoder version 20100711 (120.5) 

XLD extraction logfile from 2010-07-14 18:06:40 -0500

Slim Gaillard / 1951-1953 (Chronological Classics 1437)

Used drive : MATSHITA CD-RW CW-8221 (revision GA0K)

Use cdparanoia mode : YES (CDParanoia III 10.2 engine)
Disable audio cache : OK for the drive with cache less than 2750KB
Make use of C2 pointers : NO
Read offset correction : 102
Max retry count : 100
Gap status : Analyzed, Appended

TOC of the extracted CD
Track | Start | Length | Start sector | End sector
---------------------------------------------------------
1 | 00:00:00 | 02:57:28 | 0 | 13302
2 | 02:57:28 | 02:33:17 | 13303 | 24794
3 | 05:30:45 | 02:45:15 | 24795 | 37184
4 | 08:15:60 | 02:31:73 | 37185 | 48582
5 | 10:47:58 | 02:36:67 | 48583 | 60349
6 | 13:24:50 | 02:31:72 | 60350 | 71746
7 | 15:56:47 | 02:21:46 | 71747 | 82367
8 | 18:18:18 | 02:34:43 | 82368 | 93960
9 | 20:52:61 | 02:28:68 | 93961 | 105128
10 | 23:21:54 | 02:31:70 | 105129 | 116523
11 | 25:53:49 | 02:51:71 | 116524 | 129419
12 | 28:45:45 | 02:47:65 | 129420 | 142009
13 | 31:33:35 | 02:40:01 | 142010 | 154010
14 | 34:13:36 | 02:34:68 | 154011 | 165628
15 | 36:48:29 | 02:35:12 | 165629 | 177265
16 | 39:23:41 | 03:07:28 | 177266 | 191318
17 | 42:30:69 | 02:41:37 | 191319 | 203430
18 | 45:12:31 | 02:22:59 | 203431 | 214139
19 | 47:35:15 | 02:43:61 | 214140 | 226425

Track 01
Filename : /Users/joel/freshly_transcoded/Slim Gaillard/2007 - 1951-1953 (Chronological Classics 1437) [FLAC]/01 - For You.flac

Pre-gap length : 00:02:00

CRC32 hash (test run) : 423CEAF4
CRC32 hash : 423CEAF4
CRC32 hash (skip zero) : 70855624
AccurateRip signature : 076B50F4
->Track not present in AccurateRip database.
Statistics
Read error : 0
Skipped (treated as error) : 0
Edge jitter error (maybe fixed) : 0
Atom jitter error (maybe fixed) : 0
Drift error (maybe fixed) : 0
Dropped bytes error (maybe fixed) : 0
Duplicated bytes error (maybe fixed) : 0
Inconsistency in error sectors : 0

Track 02
Filename : /Users/joel/freshly_transcoded/Slim Gaillard/2007 - 1951-1953 (Chronological Classics 1437) [FLAC]/02 - Yip Roc Heresy.flac

Pre-gap length : 00:02:10

CRC32 hash (test run) : 708F7BF3
CRC32 hash : 708F7BF3
CRC32 hash (skip zero) : 5C1141E4
AccurateRip signature : 45C0AF01
->Track not present in AccurateRip database.
Statistics
Read error : 0
Skipped (treated as error) : 0
Edge jitter error (maybe fixed) : 0
Atom jitter error (maybe fixed) : 0
Drift error (maybe fixed) : 0
Dropped bytes error (maybe fixed) : 0
Duplicated bytes error (maybe fixed) : 0
Inconsistency in error sectors : 0

Track 03
Filename : /Users/joel/freshly_transcoded/Slim Gaillard/2007 - 1951-1953 (Chronological Classics 1437) [FLAC]/03 - The Hip Cowboy.flac

Pre-gap length : 00:02:10

CRC32 hash (test run) : FC7E6884
CRC32 hash : FC7E6884
CRC32 hash (skip zero) : 0AC6C511
AccurateRip signature : 8362A3E1
->Track not present in AccurateRip database.
Statistics
Read error : 0
Skipped (treated as error) : 0
Edge jitter error (maybe fixed) : 0
Atom jitter error (maybe fixed) : 0
Drift error (maybe fixed) : 0
Dropped bytes error (maybe fixed) : 0
Duplicated bytes error (maybe fixed) : 0
Inconsistency in error sectors : 0

Track 04
Filename : /Users/joel/freshly_transcoded/Slim Gaillard/2007 - 1951-1953 (Chronological Classics 1437) [FLAC]/04 - Chicken Rhythm.flac

Pre-gap length : 00:02:10

CRC32 hash (test run) : 6FE65E21
CRC32 hash : 6FE65E21
CRC32 hash (skip zero) : 72561009
AccurateRip signature : 9F81F0DF
->Track not present in AccurateRip database.
Statistics
Read error : 0
Skipped (treated as error) : 0
Edge jitter error (maybe fixed) : 0
Atom jitter error (maybe fixed) : 0
Drift error (maybe fixed) : 0
Dropped bytes error (maybe fixed) : 0
Duplicated bytes error (maybe fixed) : 0
Inconsistency in error sectors : 0

Track 05
Filename : /Users/joel/freshly_transcoded/Slim Gaillard/2007 - 1951-1953 (Chronological Classics 1437) [FLAC]/05 - I Only Have Eyes For You.flac

Pre-gap length : 00:02:10

CRC32 hash (test run) : 7A695131
CRC32 hash : 7A695131
CRC32 hash (skip zero) : AFE70369
AccurateRip signature : 730951EB
->Track not present in AccurateRip database.
Statistics
Read error : 0
Skipped (treated as error) : 0
Edge jitter error (maybe fixed) : 0
Atom jitter error (maybe fixed) : 0
Drift error (maybe fixed) : 0
Dropped bytes error (maybe fixed) : 0
Duplicated bytes error (maybe fixed) : 0
Inconsistency in error sectors : 0

Track 06
Filename : /Users/joel/freshly_transcoded/Slim Gaillard/2007 - 1951-1953 (Chronological Classics 1437) [FLAC]/06 - As You Are.flac

Pre-gap length : 00:02:10

CRC32 hash (test run) : 5A92433E
CRC32 hash : 5A92433E
CRC32 hash (skip zero) : C666660C
AccurateRip signature : D3A06A89
->Track not present in AccurateRip database.
Statistics
Read error : 0
Skipped (treated as error) : 0
Edge jitter error (maybe fixed) : 0
Atom jitter error (maybe fixed) : 0
Drift error (maybe fixed) : 0
Dropped bytes error (maybe fixed) : 0
Duplicated bytes error (maybe fixed) : 0
Inconsistency in error sectors : 0

Track 07
Filename : /Users/joel/freshly_transcoded/Slim Gaillard/2007 - 1951-1953 (Chronological Classics 1437) [FLAC]/07 - St. Louis Blues.flac

Pre-gap length : 00:02:10

CRC32 hash (test run) : 26B0873F
CRC32 hash : 26B0873F
CRC32 hash (skip zero) : 8F95C454
AccurateRip signature : BBB894F2
->Track not present in AccurateRip database.
Statistics
Read error : 0
Skipped (treated as error) : 0
Edge jitter error (maybe fixed) : 0
Atom jitter error (maybe fixed) : 0
Drift error (maybe fixed) : 0
Dropped bytes error (maybe fixed) : 0
Duplicated bytes error (maybe fixed) : 0
Inconsistency in error sectors : 0

Track 08
Filename : /Users/joel/freshly_transcoded/Slim Gaillard/2007 - 1951-1953 (Chronological Classics 1437) [FLAC]/08 - I Know What To Do.flac

Pre-gap length : 00:02:10

CRC32 hash (test run) : BBB1D3F9
CRC32 hash : BBB1D3F9
CRC32 hash (skip zero) : 478C0D34
AccurateRip signature : EAC25FB0
->Track not present in AccurateRip database.
Statistics
Read error : 0
Skipped (treated as error) : 0
Edge jitter error (maybe fixed) : 0
Atom jitter error (maybe fixed) : 0
Drift error (maybe fixed) : 0
Dropped bytes error (maybe fixed) : 0
Duplicated bytes error (maybe fixed) : 0
Inconsistency in error sectors : 0

Track 09
Filename : /Users/joel/freshly_transcoded/Slim Gaillard/2007 - 1951-1953 (Chronological Classics 1437) [FLAC]/09 - Taxpayers Blues.flac

Pre-gap length : 00:02:10

CRC32 hash (test run) : 406D73F1
CRC32 hash : 406D73F1
CRC32 hash (skip zero) : 97F109E9
AccurateRip signature : 64647E93
->Track not present in AccurateRip database.
Statistics
Read error : 0
Skipped (treated as error) : 0
Edge jitter error (maybe fixed) : 1
Atom jitter error (maybe fixed) : 1
Drift error (maybe fixed) : 0
Dropped bytes error (maybe fixed) : 0
Duplicated bytes error (maybe fixed) : 0
Inconsistency in error sectors : 0

Track 10
Filename : /Users/joel/freshly_transcoded/Slim Gaillard/2007 - 1951-1953 (Chronological Classics 1437) [FLAC]/10 - Eatin' With The Boogie.flac

Pre-gap length : 00:02:10

CRC32 hash (test run) : 8D971E50
CRC32 hash : 8D971E50
CRC32 hash (skip zero) : 86F0998B
AccurateRip signature : 8AF1D8EC
->Track not present in AccurateRip database.
Statistics
Read error : 0
Skipped (treated as error) : 0
Edge jitter error (maybe fixed) : 0
Atom jitter error (maybe fixed) : 0
Drift error (maybe fixed) : 0
Dropped bytes error (maybe fixed) : 0
Duplicated bytes error (maybe fixed) : 0
Inconsistency in error sectors : 0

Track 11
Filename : /Users/joel/freshly_transcoded/Slim Gaillard/2007 - 1951-1953 (Chronological Classics 1437) [FLAC]/11 - Make It Do.flac

Pre-gap length : 00:02:10

CRC32 hash (test run) : CCA00594
CRC32 hash : CCA00594
CRC32 hash (skip zero) : 123A2600
AccurateRip signature : 9EC3A645
->Track not present in AccurateRip database.
Statistics
Read error : 0
Skipped (treated as error) : 0
Edge jitter error (maybe fixed) : 0
Atom jitter error (maybe fixed) : 0
Drift error (maybe fixed) : 0
Dropped bytes error (maybe fixed) : 0
Duplicated bytes error (maybe fixed) : 0
Inconsistency in error sectors : 0

Track 12
Filename : /Users/joel/freshly_transcoded/Slim Gaillard/2007 - 1951-1953 (Chronological Classics 1437) [FLAC]/12 - You Goofed.flac

Pre-gap length : 00:02:10

CRC32 hash (test run) : D1274D13
CRC32 hash : D1274D13
CRC32 hash (skip zero) : 57A0D2B5
AccurateRip signature : 8E958AEA
->Track not present in AccurateRip database.
Statistics
Read error : 0
Skipped (treated as error) : 0
Edge jitter error (maybe fixed) : 0
Atom jitter error (maybe fixed) : 0
Drift error (maybe fixed) : 0
Dropped bytes error (maybe fixed) : 0
Duplicated bytes error (maybe fixed) : 0
Inconsistency in error sectors : 0

Track 13
Filename : /Users/joel/freshly_transcoded/Slim Gaillard/2007 - 1951-1953 (Chronological Classics 1437) [FLAC]/13 - I Can't Give You Anything But Love.flac

Pre-gap length : 00:02:10

CRC32 hash (test run) : 61D0C337
CRC32 hash : 61D0C337
CRC32 hash (skip zero) : 133BB30A
AccurateRip signature : 1E43AB28
->Track not present in AccurateRip database.
Statistics
Read error : 0
Skipped (treated as error) : 0
Edge jitter error (maybe fixed) : 0
Atom jitter error (maybe fixed) : 0
Drift error (maybe fixed) : 0
Dropped bytes error (maybe fixed) : 0
Duplicated bytes error (maybe fixed) : 0
Inconsistency in error sectors : 0

Track 14
Filename : /Users/joel/freshly_transcoded/Slim Gaillard/2007 - 1951-1953 (Chronological Classics 1437) [FLAC]/14 - This Is My Love.flac

Pre-gap length : 00:02:10

CRC32 hash (test run) : 72A68D7A
CRC32 hash : 72A68D7A
CRC32 hash (skip zero) : 8645720E
AccurateRip signature : A80A1B12
->Track not present in AccurateRip database.
Statistics
Read error : 0
Skipped (treated as error) : 0
Edge jitter error (maybe fixed) : 0
Atom jitter error (maybe fixed) : 0
Drift error (maybe fixed) : 0
Dropped bytes error (maybe fixed) : 0
Duplicated bytes error (maybe fixed) : 0
Inconsistency in error sectors : 0

Track 15
Filename : /Users/joel/freshly_transcoded/Slim Gaillard/2007 - 1951-1953 (Chronological Classics 1437) [FLAC]/15 - Gomen Nasai.flac

Pre-gap length : 00:02:10

CRC32 hash (test run) : 80370276
CRC32 hash : 80370276
CRC32 hash (skip zero) : E19B60B3
AccurateRip signature : 0F8D34F4
->Track not present in AccurateRip database.
Statistics
Read error : 0
Skipped (treated as error) : 0
Edge jitter error (maybe fixed) : 0
Atom jitter error (maybe fixed) : 0
Drift error (maybe fixed) : 0
Dropped bytes error (maybe fixed) : 0
Duplicated bytes error (maybe fixed) : 0
Inconsistency in error sectors : 0

Track 16
Filename : /Users/joel/freshly_transcoded/Slim Gaillard/2007 - 1951-1953 (Chronological Classics 1437) [FLAC]/16 - Patato Chips.flac

Pre-gap length : 00:02:10

CRC32 hash (test run) : 951A0B1B
CRC32 hash : 951A0B1B
CRC32 hash (skip zero) : 14058619
AccurateRip signature : CF0A8B54
->Track not present in AccurateRip database.
Statistics
Read error : 0
Skipped (treated as error) : 0
Edge jitter error (maybe fixed) : 1
Atom jitter error (maybe fixed) : 1
Drift error (maybe fixed) : 0
Dropped bytes error (maybe fixed) : 0
Duplicated bytes error (maybe fixed) : 0
Inconsistency in error sectors : 0

Track 17
Filename : /Users/joel/freshly_transcoded/Slim Gaillard/2007 - 1951-1953 (Chronological Classics 1437) [FLAC]/17 - I'm In The Mood For Love.flac

Pre-gap length : 00:02:10

CRC32 hash (test run) : 19896852
CRC32 hash : 19896852
CRC32 hash (skip zero) : BDA8DA20
AccurateRip signature : DC61411C
->Track not present in AccurateRip database.
Statistics
Read error : 0
Skipped (treated as error) : 0
Edge jitter error (maybe fixed) : 0
Atom jitter error (maybe fixed) : 0
Drift error (maybe fixed) : 0
Dropped bytes error (maybe fixed) : 0
Duplicated bytes error (maybe fixed) : 0
Inconsistency in error sectors : 0

Track 18
Filename : /Users/joel/freshly_transcoded/Slim Gaillard/2007 - 1951-1953 (Chronological Classics 1437) [FLAC]/18 - Mishugana Mambo.flac

Pre-gap length : 00:02:10

CRC32 hash (test run) : ACB75BDA
CRC32 hash : ACB75BDA
CRC32 hash (skip zero) : C352C46B
AccurateRip signature : 57425CBC
->Track not present in AccurateRip database.
Statistics
Read error : 0
Skipped (treated as error) : 0
Edge jitter error (maybe fixed) : 0
Atom jitter error (maybe fixed) : 0
Drift error (maybe fixed) : 0
Dropped bytes error (maybe fixed) : 0
Duplicated bytes error (maybe fixed) : 0
Inconsistency in error sectors : 0

Track 19
Filename : /Users/joel/freshly_transcoded/Slim Gaillard/2007 - 1951-1953 (Chronological Classics 1437) [FLAC]/19 - Go, Man, Go.flac

Pre-gap length : 00:02:10

CRC32 hash (test run) : A2C9E6E8
CRC32 hash : A2C9E6E8
CRC32 hash (skip zero) : 05F8A574
AccurateRip signature : F2BB69E6
->Track not present in AccurateRip database.
Statistics
Read error : 0
Skipped (treated as error) : 0
Edge jitter error (maybe fixed) : 0
Atom jitter error (maybe fixed) : 0
Drift error (maybe fixed) : 0
Dropped bytes error (maybe fixed) : 0
Duplicated bytes error (maybe fixed) : 0
Inconsistency in error sectors : 0

No errors occurred

End of status report
REM GENRE Jazz 
REM DATE 2007
REM DISCID 080BCB13
PERFORMER "Slim Gaillard"
TITLE "1951-1953"
FILE "01 - For You.wav" WAVE
TRACK 01 AUDIO
TITLE "For You"
PERFORMER "Slim Gaillard"
INDEX 01 00:00:00
TRACK 02 AUDIO
TITLE "Yip Roc Heresy"
PERFORMER "Slim Gaillard"
INDEX 00 02:55:18
FILE "02 - Yip Roc Heresy.wav" WAVE
INDEX 01 00:00:00
TRACK 03 AUDIO
TITLE "The Hip Cowboy"
PERFORMER "Slim Gaillard"
INDEX 00 02:31:07
FILE "03 - The Hip Cowboy.wav" WAVE
INDEX 01 00:00:00
TRACK 04 AUDIO
TITLE "Chicken Rhythm"
PERFORMER "Slim Gaillard"
INDEX 00 02:43:05
FILE "04 - Chicken Rhythm.wav" WAVE
INDEX 01 00:00:00
TRACK 05 AUDIO
TITLE "I Only Have Eyes for You"
PERFORMER "Slim Gaillard"
INDEX 00 02:29:63
FILE "05 - I Only Have Eyes for You.wav" WAVE
INDEX 01 00:00:00
TRACK 06 AUDIO
TITLE "As You Are"
PERFORMER "Slim Gaillard"
INDEX 00 02:34:57
FILE "06 - As You Are.wav" WAVE
INDEX 01 00:00:00
TRACK 07 AUDIO
TITLE "St. Louis Blues"
PERFORMER "Slim Gaillard"
INDEX 00 02:29:62
FILE "07 - St. Louis Blues.wav" WAVE
INDEX 01 00:00:00
TRACK 08 AUDIO
TITLE "I Know What to Do"
PERFORMER "Slim Gaillard"
INDEX 00 02:19:36
FILE "08 - I Know What to Do.wav" WAVE
INDEX 01 00:00:00
TRACK 09 AUDIO
TITLE "Taxpayers Blues"
PERFORMER "Slim Gaillard"
INDEX 00 02:32:33
FILE "09 - Taxpayers Blues.wav" WAVE
INDEX 01 00:00:00
TRACK 10 AUDIO
TITLE "Eatin' with the Boogie"
PERFORMER "Slim Gaillard"
INDEX 00 02:26:58
FILE "10 - Eatin' with the Boogie.wav" WAVE
INDEX 01 00:00:00
TRACK 11 AUDIO
TITLE "Make It Do"
PERFORMER "Slim Gaillard"
INDEX 00 02:29:60
FILE "11 - Make It Do.wav" WAVE
INDEX 01 00:00:00
TRACK 12 AUDIO
TITLE "You Goofed"
PERFORMER "Slim Gaillard"
INDEX 00 02:49:61
FILE "12 - You Goofed.wav" WAVE
INDEX 01 00:00:00
TRACK 13 AUDIO
TITLE "I Can't Give You Anything But Love"
PERFORMER "Slim Gaillard"
INDEX 00 02:45:55
FILE "13 - I Can't Give You Anything But Love.wav" WAVE
INDEX 01 00:00:00
TRACK 14 AUDIO
TITLE "This Is My Love"
PERFORMER "Slim Gaillard"
INDEX 00 02:37:66
FILE "14 - This Is My Love.wav" WAVE
INDEX 01 00:00:00
TRACK 15 AUDIO
TITLE "Gomen Nasai"
PERFORMER "Slim Gaillard"
INDEX 00 02:32:58
FILE "15 - Gomen Nasai.wav" WAVE
INDEX 01 00:00:00
TRACK 16 AUDIO
TITLE "Patato Chips"
PERFORMER "Slim Gaillard"
INDEX 00 02:33:02
FILE "16 - Patato Chips.wav" WAVE
INDEX 01 00:00:00
TRACK 17 AUDIO
TITLE "I'm in the Mood for Love"
PERFORMER "Slim Gaillard"
INDEX 00 03:05:18
FILE "17 - I'm in the Mood for Love.wav" WAVE
INDEX 01 00:00:00
TRACK 18 AUDIO
TITLE "Mishugana Mambo"
PERFORMER "Slim Gaillard"
INDEX 00 02:39:27
FILE "18 - Mishugana Mambo.wav" WAVE
INDEX 01 00:00:00
TRACK 19 AUDIO
TITLE "Go, Man, Go"
PERFORMER "Slim Gaillard"
INDEX 00 02:20:49
FILE "19 - Go, Man, Go.wav" WAVE
INDEX 01 00:00:00

Этот торрент недоступен для скачивания без регистрации, однако доступен по публичной magnet-ссылке (источники с публичных трекеров). Перед использованием ссылки прочтите, пожалуйста Пользовательское соглашение, а также как можно дольше оставайтесь на раздаче! Для того, чтобы скачать сам торрент-файл (который видит больше источников), а также для того, чтобы поблагодарить релизера, вам необходимо зарегистрироваться. Если регистрироваться лень - вы можете также попробовать скачать релиз по нашим партнерским ссылкам ниже. Кроме того, зарегистрированным пользователям не показывается всплывающая реклама при скачивании.

[underver.se].t157097.torrent
Трекер: Зарегистрирован   [ 14.01.2020 14:46 ]  

Статус: проверено (by Бишеп at 14.01.2020 14:46)
Поблагодарили: пока никто не поблагодарил...
Тип торрента: публичный - доступные источники с открытых трекеров: 
Размер: 132 MB (занимает 0,03 DVDR, для записи нужно 1 болванка DVDR/RW)
 
 

Яндекс.Метрика powered by Sphinx


В Н И М А Н И Е
Сайт не распространяет и не хранит электронные версии произведений, а лишь бесплатно и без коммерческой выгоды (не требуя взамен платы,
SMS и т.д.) предоставляет доступ к создаваемому пользователями каталогу ссылок на торрент-файлы, которые содержат только списки хеш-сумм.
Убедительная просьба с жалобами обращаться напрямую к пользователю, разместившему торрент файл.

Вверх