Loading...
Error

(Ska, Punk) Ляпис Трубецкой - Веселые Картинки (2011) [FLAC (Tracks+.CUE), lossless]

Статистика раздачи
Размер:  278 MB   |    Зарегистрирован:  8 лет 6 месяцев   |    Скачан:  10 раз

Полного источника не было: 3 месяца 16 дней

Сидов:  0  |  0 KB/s  ]   Личеров:  0  |  0 KB/s  ]

* - сиды/пиры с внешних источников

   
 
Автор Сообщение

garry Пол:Муж

22-Апр-2011 22:07

Ляпис Трубецкой - Веселые Картинки

Жанр: Ska, Punk
Год выпуска: 2011
Производитель диска: Russia
Аудиокодек: FLAC
Тип рипа: Tracks+.CUE
Битрейт аудио: lossless
Продолжительность: 00:36:47

Треклист:

01. Интро
02. Зевс
03. Африка
04. Нафта
05. Я Верю
06. Принцесса
07. Шут
08. Зоопарк
09. Грай
10. Космонавты
11. Священный Огонь
12. Дикий Койот
Exact Audio Copy V1.0 beta 1 from 15. November 2010

EAC extraction logfile from 12. March 2011, 12:08

Ляпис Трубецкой / Веселые Картинки

Used drive : HL-DT-STDVD-RAM GH22NP20 Adapter: 1 ID: 0

Read mode : Secure
Utilize accurate stream : Yes
Defeat audio cache : Yes
Make use of C2 pointers : No

Read offset correction : 102
Overread into Lead-In and Lead-Out : No
Fill up missing offset samples with silence : Yes
Delete leading and trailing silent blocks : No
Null samples used in CRC calculations : Yes
Used interface : Native Win32 interface for Win NT & 2000
Gap handling : Appended to previous track

Used output format : User Defined Encoder
Selected bitrate : 128 kBit/s
Quality : High
Add ID3 tag : No
Command line compressor : C:\Program Files (x86)\FLAC\flac.exe
Additional command line options : -8 -V -T "ARTIST=%a" -T "TITLE=%t" -T "ALBUM=%g" -T "DATE=%y" -T "TRACKNUMBER=%n" -T "GENRE=%m" -T "COMMENT=EAC FLAC -8" %s

TOC of the extracted CD

Track | Start | Length | Start sector | End sector
---------------------------------------------------------
1 | 0:00.00 | 1:05.08 | 0 | 4882
2 | 1:05.08 | 3:23.10 | 4883 | 20117
3 | 4:28.18 | 3:57.02 | 20118 | 37894
4 | 8:25.20 | 2:58.58 | 37895 | 51302
5 | 11:24.03 | 3:07.45 | 51303 | 65372
6 | 14:31.48 | 2:37.29 | 65373 | 77176
7 | 17:09.02 | 3:24.06 | 77177 | 92482
8 | 20:33.08 | 2:39.07 | 92483 | 104414
9 | 23:12.15 | 4:11.38 | 104415 | 123277
10 | 27:23.53 | 3:18.60 | 123278 | 138187
11 | 30:42.38 | 2:13.53 | 138188 | 148215
12 | 32:56.16 | 3:55.07 | 148216 | 165847

Track 1

Filename D:\01. Ляпис Трубецкой – Интро.wav

Pre-gap length 0:00:02.00

Peak level 96.3 %
Extraction speed 1.0 X
Track quality 100.0 %
Test CRC 16CA533F
Copy CRC 16CA533F
Track not present in AccurateRip database
Copy OK

Track 2

Filename D:\02. Ляпис Трубецкой – Зевс.wav

Peak level 100.0 %
Extraction speed 1.5 X
Track quality 100.0 %
Test CRC E5CD7D08
Copy CRC E5CD7D08
Track not present in AccurateRip database
Copy OK

Track 3

Filename D:\03. Ляпис Трубецкой – Африка.wav

Pre-gap length 0:00:01.00

Peak level 100.0 %
Extraction speed 1.7 X
Track quality 100.0 %
Test CRC 25580819
Copy CRC 25580819
Track not present in AccurateRip database
Copy OK

Track 4

Filename D:\04. Ляпис Трубецкой – Нафта.wav

Pre-gap length 0:00:01.00

Peak level 100.0 %
Extraction speed 1.8 X
Track quality 100.0 %
Test CRC 35EBD92D
Copy CRC 35EBD92D
Track not present in AccurateRip database
Copy OK

Track 5

Filename D:\05. Ляпис Трубецкой – Я Верю.wav

Pre-gap length 0:00:01.00

Peak level 100.0 %
Extraction speed 1.7 X
Track quality 99.9 %
Test CRC 54A7FDA0
Copy CRC 54A7FDA0
Track not present in AccurateRip database
Copy OK

Track 6

Filename D:\06. Ляпис Трубецкой – Принцесса.wav

Pre-gap length 0:00:01.00

Peak level 100.0 %
Extraction speed 1.6 X
Track quality 99.9 %
Test CRC 50E64179
Copy CRC 50E64179
Track not present in AccurateRip database
Copy OK

Track 7

Filename D:\07. Ляпис Трубецкой – Шут.wav

Pre-gap length 0:00:01.00

Peak level 100.0 %
Extraction speed 2.2 X
Track quality 100.0 %
Test CRC 4F8FF63C
Copy CRC 4F8FF63C
Track not present in AccurateRip database
Copy OK

Track 8

Filename D:\08. Ляпис Трубецкой – Зоопарк.wav

Pre-gap length 0:00:01.00

Peak level 100.0 %
Extraction speed 2.1 X
Track quality 100.0 %
Test CRC 341E93F9
Copy CRC 341E93F9
Track not present in AccurateRip database
Copy OK

Track 9

Filename D:\09. Ляпис Трубецкой – Грай.wav

Pre-gap length 0:00:01.00

Peak level 100.0 %
Extraction speed 2.4 X
Track quality 100.0 %
Test CRC D08DAAE3
Copy CRC D08DAAE3
Track not present in AccurateRip database
Copy OK

Track 10

Filename D:\10. Ляпис Трубецкой – Космонавты.wav

Pre-gap length 0:00:01.00

Peak level 100.0 %
Extraction speed 2.4 X
Track quality 100.0 %
Test CRC 91C2C8E7
Copy CRC 91C2C8E7
Track not present in AccurateRip database
Copy OK

Track 11

Filename D:\11. Ляпис Трубецкой – Священный Огонь.wav

Pre-gap length 0:00:01.00

Peak level 100.0 %
Extraction speed 2.3 X
Track quality 100.0 %
Test CRC B6DA4B54
Copy CRC B6DA4B54
Track not present in AccurateRip database
Copy OK

Track 12

Filename D:\12. Ляпис Трубецкой – Дикий Койот.wav

Pre-gap length 0:00:01.00

Peak level 100.0 %
Extraction speed 2.3 X
Track quality 99.9 %
Test CRC 24899203
Copy CRC 24899203
Track not present in AccurateRip database
Copy OK

None of the tracks are present in the AccurateRip database

No errors occurred

End of status report

Этот торрент недоступен для скачивания без регистрации, однако доступен по публичной magnet-ссылке (источники с публичных трекеров). Перед использованием ссылки прочтите, пожалуйста Пользовательское соглашение, а также как можно дольше оставайтесь на раздаче! Для того, чтобы скачать сам торрент-файл (который видит больше источников), а также для того, чтобы поблагодарить релизера, вам необходимо зарегистрироваться. Если регистрироваться лень - вы можете также попробовать скачать релиз по нашим партнерским ссылкам ниже. Кроме того, зарегистрированным пользователям не показывается всплывающая реклама при скачивании.

[underverse.su].t27492.torrent
Трекер: Зарегистрирован   [ 14.05.2013 14:30 ]  

Статус: проверено (by Бишеп at 14.05.2013 14:30)
Поблагодарили: 3 человека
Тип торрента: публичный - доступные источники с открытых трекеров: 
Размер: 278 MB (занимает 0,06 DVDR, для записи нужно 1 болванка DVDR/RW)
 
 
Похожие темы
Форум Тема Автор Торрент Отв. Посл. сооб.
Ska-Punk, Ska-Core (Ska, Punk-Rock) Less Than Jake - Sound The Alarm (EP) (2017) [MP3, 320 kbps CBR] Darkferse
1 | 0

0 | 1386

2

24.05.2017 18:45

Ska-Punk, Ska-Core (Lossless) (Ska, Punk) Ляпис Трубецкой - Рабкор (2012) [FLAC (Tracks+.CUE), Lossless] Бишеп
1 | 0

0 | 2966

11

23.06.2013 10:19

Ska-Punk, Ska-Core (Lossless) (Ska, Punk, Alternative Rock) Ляпис Трубецкой (Lyapis Trubetskoy) - Agitpop (2010) [FLAC (Tracks+.Cue), Lossless] Бишеп
5 | 0

0 | 1536

4

15.02.2018 12:24


Яндекс.Метрика powered by Sphinx


В Н И М А Н И Е
Сайт не распространяет и не хранит электронные версии произведений, а лишь бесплатно и без коммерческой выгоды (не требуя взамен платы,
SMS и т.д.) предоставляет доступ к создаваемому пользователями каталогу ссылок на торрент-файлы, которые содержат только списки хеш-сумм.
Убедительная просьба с жалобами обращаться напрямую к пользователю, разместившему торрент файл.

Вверх