Loading...
Error

OTUS - Этичный хакинг. Практика тестирования на проникновение [2019 г., программирование, PCRec]

Статистика раздачи
Размер:  4,77 GB   |    Зарегистрирован:  4 дня   |    Скачан:  8 раз
Сидов:  2  |  31 KB/s  ]   Личеров:  0  |  0 KB/s  ]

* - сиды/пиры с внешних источников

   
 
Автор Сообщение

Паукан Пол:Муж

25-Мар-2020 18:06

OTUS - Этичный хакинг. Практика тестирования на проникновение (2019) PCRec [H.264]

Автор (режиссер): OTUS
Производство: Александр Колесников, Иван Кудрявин
Жанр: Программирование

Описание:
Цель курса показать на практике, как проводится детальный анализ сетевых ресурсов, программного обеспечения, web-ресурсов на наличие уязвимостей, их эксплуатацию и дальнейшее устранение.

Продолжительность: 34:00:46
Качество видео: PCRec

Видео: AVC/H.264, 1366x768-1440x822, ~33-480 Kbps
Аудио: AAC, 1 ch, 50-53 Kbps
 
Общее
Полное имя : D:\downloads\release\[OTUS] Пентест. Практика тестирования на проникновение (2019)\2. Что такое тестирование на проникновение и зачем оно нужно\Вебинар.mp4
Формат : MPEG-4
Профиль формата : Base Media / Version 2
Идентификатор кодека : mp42 (isom/mp42)
Размер файла : 62,6 Мбайт
Продолжительность : 1 ч. 38 м.
Режим общего битрейта : Переменный
Общий поток : 88,6 Кбит/сек
Дата кодирования : UTC 2019-10-03 19:09:21
Дата пометки : UTC 2019-10-03 19:09:21

Видео
Идентификатор : 2
Формат : AVC
Формат/Информация : Advanced Video Codec
Профиль формата : High@L5
Настройки формата : CABAC / 11 Ref Frames
Параметр CABAC формата : Да
Параметр RefFrames формата : 11 кадров
Идентификатор кодека : avc1
Идентификатор кодека/Информация : Advanced Video Coding
Продолжительность : 1 ч. 38 м.
Битрейт : 33,1 Кбит/сек
Ширина : 1366 пикселей
Высота : 768 пикселей
Соотношение сторон : 16:9
Режим частоты кадров : Постоянный
Частота кадров : 25,000 кадров/сек
Цветовое пространство : YUV
Субдискретизация насыщенности : 4:2:0
Битовая глубина : 8 бит
Тип развёртки : Прогрессивная
Бит/(Пиксели*Кадры) : 0.001
Размер потока : 23,4 Мбайт (37%)
Дата кодирования : UTC 2019-10-03 19:09:21
Дата пометки : UTC 2019-10-03 19:09:21
Codec configuration box : avcC

Аудио
Идентификатор : 1
Формат : AAC LC
Формат/Информация : Advanced Audio Codec Low Complexity
Идентификатор кодека : mp4a-40-2
Продолжительность : 1 ч. 38 м.
Вид битрейта : Переменный
Битрейт : 53,4 Кбит/сек
Максимальный битрейт : 112 Кбит/сек
Каналы : 1 канал
ChannelLayout : C
Частота : 32,0 КГц
Частота кадров : 31,250 кадров/сек (1024 SPF)
Метод сжатия : С потерями
Размер потока : 37,7 Мбайт (60%)
Заголовок : AAC audio
Дата кодирования : UTC 2019-10-03 19:09:21
Дата пометки : UTC 2019-10-03 19:09:21

Общее
Полное имя : D:\downloads\release\[OTUS] Пентест. Практика тестирования на проникновение (2019)\8. Настройка лабораторной для второго модуля\Вебинар.mp4
Формат : MPEG-4
Профиль формата : Base Media / Version 2
Идентификатор кодека : mp42 (isom/mp42)
Размер файла : 87,6 Мбайт
Продолжительность : 41 м. 55 с.
Режим общего битрейта : Переменный
Общий поток : 292 Кбит/сек
Дата кодирования : UTC 2019-10-24 17:49:17
Дата пометки : UTC 2019-10-24 17:49:17

Видео
Идентификатор : 2
Формат : AVC
Формат/Информация : Advanced Video Codec
Профиль формата : High@L5
Настройки формата : CABAC / 11 Ref Frames
Параметр CABAC формата : Да
Параметр RefFrames формата : 11 кадров
Идентификатор кодека : avc1
Идентификатор кодека/Информация : Advanced Video Coding
Продолжительность : 41 м. 55 с.
Битрейт : 238 Кбит/сек
Ширина : 1440 пикселей
Высота : 900 пикселей
Соотношение сторон : 16:10
Режим частоты кадров : Постоянный
Частота кадров : 25,000 кадров/сек
Цветовое пространство : YUV
Субдискретизация насыщенности : 4:2:0
Битовая глубина : 8 бит
Тип развёртки : Прогрессивная
Бит/(Пиксели*Кадры) : 0.007
Размер потока : 71,5 Мбайт (82%)
Дата кодирования : UTC 2019-10-24 17:49:17
Дата пометки : UTC 2019-10-24 17:49:17
Codec configuration box : avcC

Аудио
Идентификатор : 1
Формат : AAC LC
Формат/Информация : Advanced Audio Codec Low Complexity
Идентификатор кодека : mp4a-40-2
Продолжительность : 41 м. 55 с.
Вид битрейта : Переменный
Битрейт : 51,8 Кбит/сек
Максимальный битрейт : 102 Кбит/сек
Каналы : 1 канал
ChannelLayout : C
Частота : 32,0 КГц
Частота кадров : 31,250 кадров/сек (1024 SPF)
Метод сжатия : С потерями
Размер потока : 15,5 Мбайт (18%)
Заголовок : AAC audio
Дата кодирования : UTC 2019-10-24 17:49:17
Дата пометки : UTC 2019-10-24 17:49:17

Скриншоты:
pic pic pic pic

Этот торрент недоступен для скачивания без регистрации, однако доступен по публичной magnet-ссылке (источники с публичных трекеров). Перед использованием ссылки прочтите, пожалуйста Пользовательское соглашение, а также как можно дольше оставайтесь на раздаче! Для того, чтобы скачать сам торрент-файл (который видит больше источников), а также для того, чтобы поблагодарить релизера, вам необходимо зарегистрироваться. Если регистрироваться лень - вы можете также попробовать скачать релиз по нашим партнерским ссылкам ниже. Кроме того, зарегистрированным пользователям не показывается всплывающая реклама при скачивании.

[underver.se].t163466.torrent
Трекер: Зарегистрирован   [ 25.03.2020 18:06 ]  

Статус: проверено (by Паукан at 25.03.2020 18:06)
Поблагодарили: пока никто не поблагодарил...
Тип торрента: публичный - доступные источники с открытых трекеров: 
Размер: 4,77 GB (занимает 1,09 DVDR, для записи нужно 2 болванки DVDR/RW)
 
 

Яндекс.Метрика powered by Sphinx


В Н И М А Н И Е
Сайт не распространяет и не хранит электронные версии произведений, а лишь бесплатно и без коммерческой выгоды (не требуя взамен платы,
SMS и т.д.) предоставляет доступ к создаваемому пользователями каталогу ссылок на торрент-файлы, которые содержат только списки хеш-сумм.
Убедительная просьба с жалобами обращаться напрямую к пользователю, разместившему торрент файл.

Вверх