Loading...
Error

OTUS - Математика для Data Science. Продвинутый курс [2020 г., программирование, PCRec]

Статистика раздачи
Размер:  4,31 GB   |    Зарегистрирован:  4 дня   |    Скачан:  4 раза
Сидов:  2  |  25 KB/s  ]   Личеров:  1  |  0 KB/s  ]

* - сиды/пиры с внешних источников

   
 
Автор Сообщение

Паукан Пол:Муж

25-Мар-2020 18:08

OTUS - Математика для Data Science. Продвинутый курс (2020) PCRec [H.264]

Автор (режиссер): OTUS
Жанр: Программирование

Описание:
Обычно математику в вузах преподают в отрыве от реальных задач, где она в дальнейшем будет применяться. Мы пошли по другому пути. Каждый модуль профессионального курса сбалансирован математической теорией и практическими примерами, которые взяты из реальных кейсов. Вы будете решать задачу регрессии, проводить АБ-тестирование, работать над рекомендательной системой, использовать метод опорных векторов.

Продолжительность: 52:50:41
Качество видео: PCRec

Видео: AVC/H.264, 1280x800-1684x900, ~55-1410 Kbps
Аудио: AAC, 1 ch, 52-53 Kbps
 
Общее
Полное имя : .\03. Матрицы. Основные понятия и операции\03.mp4
Формат : MPEG-4
Профиль формата : Base Media / Version 2
Идентификатор кодека : mp42 (isom/mp42)
Размер файла : 114 Мбайт
Продолжительность : 1 ч. 48 м.
Режим общего битрейта : Переменный
Общий поток : 147 Кбит/сек
Дата кодирования : UTC 2019-08-13 18:56:13
Дата пометки : UTC 2019-08-13 18:56:13

Видео
Идентификатор : 2
Формат : AVC
Формат/Информация : Advanced Video Codec
Профиль формата : High@L5
Настройки формата : CABAC / 11 Ref Frames
Параметр CABAC формата : Да
Параметр RefFrames формата : 11 кадров
Идентификатор кодека : avc1
Идентификатор кодека/Информация : Advanced Video Coding
Продолжительность : 1 ч. 48 м.
Битрейт : 91,5 Кбит/сек
Ширина : 1280 пикселей
Высота : 800 пикселей
Соотношение сторон : 16:10
Режим частоты кадров : Постоянный
Частота кадров : 25,000 кадров/сек
Цветовое пространство : YUV
Субдискретизация насыщенности : 4:2:0
Битовая глубина : 8 бит
Тип развёртки : Прогрессивная
Бит/(Пиксели*Кадры) : 0.004
Размер потока : 71,0 Мбайт (62%)
Дата кодирования : UTC 2019-08-13 18:56:13
Дата пометки : UTC 2019-08-13 18:56:13
Codec configuration box : avcC

Аудио
Идентификатор : 1
Формат : AAC LC
Формат/Информация : Advanced Audio Codec Low Complexity
Идентификатор кодека : mp4a-40-2
Продолжительность : 1 ч. 48 м.
Вид битрейта : Переменный
Битрейт : 53,3 Кбит/сек
Максимальный битрейт : 128 Кбит/сек
Каналы : 1 канал
ChannelLayout : C
Частота : 32,0 КГц
Частота кадров : 31,250 кадров/сек (1024 SPF)
Метод сжатия : С потерями
Размер потока : 41,4 Мбайт (36%)
Заголовок : AAC audio
Дата кодирования : UTC 2019-08-13 18:56:13
Дата пометки : UTC 2019-08-13 18:56:13

Общее
Полное имя : .\22. Теоремы\22.mp4
Формат : MPEG-4
Профиль формата : Base Media / Version 2
Идентификатор кодека : mp42 (isom/mp42)
Размер файла : 73,5 Мбайт
Продолжительность : 1 ч. 32 м.
Режим общего битрейта : Переменный
Общий поток : 111 Кбит/сек
Дата кодирования : UTC 2019-10-25 17:39:00
Дата пометки : UTC 2019-10-25 17:39:00

Видео
Идентификатор : 2
Формат : AVC
Формат/Информация : Advanced Video Codec
Профиль формата : High@L5
Настройки формата : CABAC / 11 Ref Frames
Параметр CABAC формата : Да
Параметр RefFrames формата : 11 кадров
Идентификатор кодека : avc1
Идентификатор кодека/Информация : Advanced Video Coding
Продолжительность : 1 ч. 32 м.
Битрейт : 55,2 Кбит/сек
Ширина : 1440 пикселей
Высота : 816 пикселей
Соотношение сторон : 16:9
Режим частоты кадров : Постоянный
Частота кадров : 25,000 кадров/сек
Цветовое пространство : YUV
Субдискретизация насыщенности : 4:2:0
Битовая глубина : 8 бит
Тип развёртки : Прогрессивная
Бит/(Пиксели*Кадры) : 0.002
Размер потока : 36,7 Мбайт (50%)
Дата кодирования : UTC 2019-10-25 17:39:00
Дата пометки : UTC 2019-10-25 17:39:00
Codec configuration box : avcC

Аудио
Идентификатор : 1
Формат : AAC LC
Формат/Информация : Advanced Audio Codec Low Complexity
Идентификатор кодека : mp4a-40-2
Продолжительность : 1 ч. 32 м.
Вид битрейта : Переменный
Битрейт : 53,4 Кбит/сек
Максимальный битрейт : 131 Кбит/сек
Каналы : 1 канал
ChannelLayout : C
Частота : 32,0 КГц
Частота кадров : 31,250 кадров/сек (1024 SPF)
Метод сжатия : С потерями
Размер потока : 35,5 Мбайт (48%)
Заголовок : AAC audio
Дата кодирования : UTC 2019-10-25 17:39:00
Дата пометки : UTC 2019-10-25 17:39:00

Общее
Полное имя : .\04. Геометрическая интерпретация в линейной алгебре\04_1.mp4
Формат : MPEG-4
Профиль формата : Base Media / Version 2
Идентификатор кодека : mp42 (isom/mp42)
Размер файла : 76,5 Мбайт
Продолжительность : 32 м. 45 с.
Режим общего битрейта : Переменный
Общий поток : 326 Кбит/сек
Дата кодирования : UTC 2019-08-16 18:15:55
Дата пометки : UTC 2019-08-16 18:15:55

Видео
Идентификатор : 2
Формат : AVC
Формат/Информация : Advanced Video Codec
Профиль формата : High@L5
Настройки формата : CABAC / 11 Ref Frames
Параметр CABAC формата : Да
Параметр RefFrames формата : 11 кадров
Идентификатор кодека : avc1
Идентификатор кодека/Информация : Advanced Video Coding
Продолжительность : 32 м. 45 с.
Битрейт : 271 Кбит/сек
Ширина : 1680 пикселей
Высота : 1050 пикселей
Соотношение сторон : 16:10
Режим частоты кадров : Постоянный
Частота кадров : 25,000 кадров/сек
Цветовое пространство : YUV
Субдискретизация насыщенности : 4:2:0
Битовая глубина : 8 бит
Тип развёртки : Прогрессивная
Бит/(Пиксели*Кадры) : 0.006
Размер потока : 63,5 Мбайт (83%)
Дата кодирования : UTC 2019-08-16 18:15:55
Дата пометки : UTC 2019-08-16 18:15:55
Codec configuration box : avcC

Аудио
Идентификатор : 1
Формат : AAC LC
Формат/Информация : Advanced Audio Codec Low Complexity
Идентификатор кодека : mp4a-40-2
Продолжительность : 32 м. 45 с.
Вид битрейта : Переменный
Битрейт : 53,4 Кбит/сек
Максимальный битрейт : 121 Кбит/сек
Каналы : 1 канал
ChannelLayout : C
Частота : 32,0 КГц
Частота кадров : 31,250 кадров/сек (1024 SPF)
Метод сжатия : С потерями
Размер потока : 12,5 Мбайт (16%)
Заголовок : AAC audio
Дата кодирования : UTC 2019-08-16 18:15:55
Дата пометки : UTC 2019-08-16 18:15:55

Общее
Полное имя : .\17. Применения мат.анализа в ML\17.mp4
Формат : MPEG-4
Профиль формата : Base Media / Version 2
Идентификатор кодека : mp42 (isom/mp42)
Размер файла : 107 Мбайт
Продолжительность : 1 ч. 24 м.
Режим общего битрейта : Переменный
Общий поток : 176 Кбит/сек
Дата кодирования : UTC 2019-10-02 20:29:24
Дата пометки : UTC 2019-10-02 20:29:24

Видео
Идентификатор : 2
Формат : AVC
Формат/Информация : Advanced Video Codec
Профиль формата : High@L5
Настройки формата : CABAC / 11 Ref Frames
Параметр CABAC формата : Да
Параметр RefFrames формата : 11 кадров
Идентификатор кодека : avc1
Идентификатор кодека/Информация : Advanced Video Coding
Продолжительность : 1 ч. 24 м.
Битрейт : 121 Кбит/сек
Ширина : 1684 пикселя
Высота : 900 пикселей
Соотношение сторон : 1,85:1
Режим частоты кадров : Постоянный
Частота кадров : 25,000 кадров/сек
Цветовое пространство : YUV
Субдискретизация насыщенности : 4:2:0
Битовая глубина : 8 бит
Тип развёртки : Прогрессивная
Бит/(Пиксели*Кадры) : 0.003
Размер потока : 73,0 Мбайт (68%)
Дата кодирования : UTC 2019-10-02 20:29:24
Дата пометки : UTC 2019-10-02 20:29:24
Codec configuration box : avcC

Аудио
Идентификатор : 1
Формат : AAC LC
Формат/Информация : Advanced Audio Codec Low Complexity
Идентификатор кодека : mp4a-40-2
Продолжительность : 1 ч. 24 м.
Вид битрейта : Переменный
Битрейт : 53,4 Кбит/сек
Максимальный битрейт : 127 Кбит/сек
Каналы : 1 канал
ChannelLayout : C
Частота : 32,0 КГц
Частота кадров : 31,250 кадров/сек (1024 SPF)
Метод сжатия : С потерями
Размер потока : 32,3 Мбайт (30%)
Заголовок : AAC audio
Дата кодирования : UTC 2019-10-02 20:29:24
Дата пометки : UTC 2019-10-02 20:29:24

Скриншоты:
pic pic pic pic

Этот торрент недоступен для скачивания без регистрации, однако доступен по публичной magnet-ссылке (источники с публичных трекеров). Перед использованием ссылки прочтите, пожалуйста Пользовательское соглашение, а также как можно дольше оставайтесь на раздаче! Для того, чтобы скачать сам торрент-файл (который видит больше источников), а также для того, чтобы поблагодарить релизера, вам необходимо зарегистрироваться. Если регистрироваться лень - вы можете также попробовать скачать релиз по нашим партнерским ссылкам ниже. Кроме того, зарегистрированным пользователям не показывается всплывающая реклама при скачивании.

[underver.se].t163467.torrent
Трекер: Зарегистрирован   [ 25.03.2020 18:08 ]  

Статус: проверено (by Паукан at 25.03.2020 18:08)
Поблагодарили: пока никто не поблагодарил...
Тип торрента: публичный - доступные источники с открытых трекеров: 
Размер: 4,31 GB (занимает 0,98 DVDR, для записи нужно 1 болванка DVDR/RW)
 
 

Яндекс.Метрика powered by Sphinx


В Н И М А Н И Е
Сайт не распространяет и не хранит электронные версии произведений, а лишь бесплатно и без коммерческой выгоды (не требуя взамен платы,
SMS и т.д.) предоставляет доступ к создаваемому пользователями каталогу ссылок на торрент-файлы, которые содержат только списки хеш-сумм.
Убедительная просьба с жалобами обращаться напрямую к пользователю, разместившему торрент файл.

Вверх