Loading...
Error

OTUS - Архитектор программного обеспечения [2020 г., программирование, PCRec]

Статистика раздачи
Размер:  7,05 GB   |    Зарегистрирован:  16 дней   |    Скачан:  7 раз
Сидов:  5  |  47 KB/s  ]   Личеров:  1  |  484 KB/s  ]

* - сиды/пиры с внешних источников

   
 
Автор Сообщение

Паукан Пол:Муж

25-Мар-2020 18:09

OTUS - Архитектор программного обеспечения (2020) PCRec [H.264]

Автор (режиссер): OTUS
Жанр: Программирование

Описание:
В процессе обучения мы рассмотрим множество нетривиальных проблем проектирования backend-приложений и их дальнейшего сопровождения. Изучим не только паттерны проектирования новых сервисов, но и освоим подходы к работе с legacy-сервисами. Научимся решать проблемы с согласованностью изменений (например, порядок применения транзакций) или с оркестрацией сервисов, что будет полезно тем, кто работает в сфере распределенных / децентрализованных систем.
Как разработчик, научитесь базовым навыкам работы с Kubernetes.

Продолжительность: 42:04:50
Качество видео: PCRec

Видео: AVC/H.264, 1280x828-1920x1080, ~30-1981 Kbps
Аудио: AAC, 1 ch, 52-128 Kbps
 
Общее
Полное имя : .\1.Когда нужен монолит, а когда микросервисы и компоненты\Когда нужен монолит, а когда микросервисы и компоненты.mp4
Формат : MPEG-4
Профиль формата : Base Media / Version 2
Идентификатор кодека : mp42 (mp41/mp42/isom)
Размер файла : 240 Мбайт
Продолжительность : 1 ч. 53 м.
Режим общего битрейта : Переменный
Общий поток : 297 Кбит/сек
Дата кодирования : UTC 2019-11-27 19:12:52
Дата пометки : UTC 2019-11-27 19:12:55

Видео
Идентификатор : 2
Формат : AVC
Формат/Информация : Advanced Video Codec
Профиль формата : High@L5
Настройки формата : CABAC / 11 Ref Frames
Параметр CABAC формата : Да
Параметр RefFrames формата : 11 кадров
Идентификатор кодека : avc1
Идентификатор кодека/Информация : Advanced Video Coding
Продолжительность : 1 ч. 53 м.
Продолжительность оригинала : 1 ч. 53 м.
Битрейт : 234 Кбит/сек
Ширина : 1280 пикселей
Высота : 828 пикселей
Соотношение сторон : 3:2
Режим частоты кадров : Постоянный
Частота кадров : 25,000 кадров/сек
Цветовое пространство : YUV
Субдискретизация насыщенности : 4:2:0
Битовая глубина : 8 бит
Тип развёртки : Прогрессивная
Бит/(Пиксели*Кадры) : 0.009
Размер потока : 189 Мбайт (79%)
Размер потока оригинала : 190 Мбайт (79%)
Заголовок : Core Media Video
Дата кодирования : UTC 2019-11-27 19:12:52
Дата пометки : UTC 2019-11-27 19:12:55
Codec configuration box : avcC

Аудио
Идентификатор : 1
Формат : AAC LC
Формат/Информация : Advanced Audio Codec Low Complexity
Идентификатор кодека : mp4a-40-2
Продолжительность : 1 ч. 53 м.
Продолжительность оригинала : 1 ч. 53 м.
Вид битрейта : Переменный
Битрейт : 59,8 Кбит/сек
Номинальный битрейт : 53,3 Кбит/сек
Максимальный битрейт : 125 Кбит/сек
Каналы : 1 канал
ChannelLayout : C
Частота : 32,0 КГц
Частота кадров : 31,250 кадров/сек (1024 SPF)
Метод сжатия : С потерями
Размер потока : 48,4 Мбайт (20%)
Размер потока оригинала : 48,4 Мбайт (20%)
Заголовок : Core Media Audio
Дата кодирования : UTC 2019-11-27 19:12:52
Дата пометки : UTC 2019-11-27 19:12:55

Общее
Полное имя : .\15.PA системы. GOSSIP, CasPAXOS. CRDT структуры\PA системы. GOSSIP, CasPAXOS. CRDT структуры.mp4
Формат : MPEG-4
Профиль формата : Base Media / Version 2
Идентификатор кодека : mp42 (isom/mp42)
Размер файла : 77,3 Мбайт
Продолжительность : 1 ч. 46 м.
Режим общего битрейта : Переменный
Общий поток : 101 Кбит/сек
Дата кодирования : UTC 2020-02-08 09:56:19
Дата пометки : UTC 2020-02-08 09:56:19

Видео
Идентификатор : 1
Формат : AVC
Формат/Информация : Advanced Video Codec
Профиль формата : High@L5
Настройки формата : CABAC / 11 Ref Frames
Параметр CABAC формата : Да
Параметр RefFrames формата : 11 кадров
Идентификатор кодека : avc1
Идентификатор кодека/Информация : Advanced Video Coding
Продолжительность : 1 ч. 46 м.
Битрейт : 46,0 Кбит/сек
Ширина : 1366 пикселей
Высота : 728 пикселей
Соотношение сторон : 1,85:1
Режим частоты кадров : Постоянный
Частота кадров : 25,000 кадров/сек
Цветовое пространство : YUV
Субдискретизация насыщенности : 4:2:0
Битовая глубина : 8 бит
Тип развёртки : Прогрессивная
Бит/(Пиксели*Кадры) : 0.002
Размер потока : 35,0 Мбайт (45%)
Дата кодирования : UTC 2020-02-08 09:56:19
Дата пометки : UTC 2020-02-08 09:56:19
Codec configuration box : avcC

Аудио
Идентификатор : 2
Формат : AAC LC
Формат/Информация : Advanced Audio Codec Low Complexity
Идентификатор кодека : mp4a-40-2
Продолжительность : 1 ч. 46 м.
Вид битрейта : Переменный
Битрейт : 53,4 Кбит/сек
Максимальный битрейт : 123 Кбит/сек
Каналы : 1 канал
ChannelLayout : C
Частота : 32,0 КГц
Частота кадров : 31,250 кадров/сек (1024 SPF)
Метод сжатия : С потерями
Размер потока : 40,7 Мбайт (53%)
Заголовок : AAC audio
Дата кодирования : UTC 2020-02-08 09:56:19
Дата пометки : UTC 2020-02-08 09:56:19

Общее
Полное имя : .\6.Введение в docker. Обзор docker compose\Введение в docker. Обзор docker compose.mp4
Формат : MPEG-4
Профиль формата : Base Media / Version 2
Идентификатор кодека : mp42 (isom/mp42)
Размер файла : 164 Мбайт
Продолжительность : 1 ч. 38 м.
Режим общего битрейта : Переменный
Общий поток : 231 Кбит/сек
Дата кодирования : UTC 2019-12-24 18:52:47
Дата пометки : UTC 2019-12-24 18:52:47

Видео
Идентификатор : 2
Формат : AVC
Формат/Информация : Advanced Video Codec
Профиль формата : High@L5
Настройки формата : CABAC / 11 Ref Frames
Параметр CABAC формата : Да
Параметр RefFrames формата : 11 кадров
Идентификатор кодека : avc1
Идентификатор кодека/Информация : Advanced Video Coding
Продолжительность : 1 ч. 38 м.
Битрейт : 177 Кбит/сек
Ширина : 1680 пикселей
Высота : 1050 пикселей
Соотношение сторон : 16:10
Режим частоты кадров : Постоянный
Частота кадров : 25,000 кадров/сек
Цветовое пространство : YUV
Субдискретизация насыщенности : 4:2:0
Битовая глубина : 8 бит
Тип развёртки : Прогрессивная
Бит/(Пиксели*Кадры) : 0.004
Размер потока : 125 Мбайт (76%)
Дата кодирования : UTC 2019-12-24 18:52:47
Дата пометки : UTC 2019-12-24 18:52:47
Codec configuration box : avcC

Аудио
Идентификатор : 1
Формат : AAC LC
Формат/Информация : Advanced Audio Codec Low Complexity
Идентификатор кодека : mp4a-40-2
Продолжительность : 1 ч. 38 м.
Вид битрейта : Переменный
Битрейт : 52,5 Кбит/сек
Максимальный битрейт : 128 Кбит/сек
Каналы : 1 канал
ChannelLayout : C
Частота : 32,0 КГц
Частота кадров : 31,250 кадров/сек (1024 SPF)
Метод сжатия : С потерями
Размер потока : 37,1 Мбайт (23%)
Заголовок : AAC audio
Дата кодирования : UTC 2019-12-24 18:52:47
Дата пометки : UTC 2019-12-24 18:52:47

Общее
Полное имя : .\17.Основы блокчейн - bitcoin\Основы блокчейн - bitcoin.mp4
Формат : MPEG-4
Профиль формата : Base Media
Идентификатор кодека : isom (isom/iso2/avc1/mp41)
Размер файла : 257 Мбайт
Продолжительность : 1 ч. 17 м.
Общий поток : 463 Кбит/сек
Программа кодирования : Lavf58.33.100

Видео
Идентификатор : 1
Формат : AVC
Формат/Информация : Advanced Video Codec
Профиль формата : Baseline@L4
Настройки формата : 1 Ref Frames
Параметр CABAC формата : Нет
Параметр RefFrames формата : 1 кадр
Идентификатор кодека : avc1
Идентификатор кодека/Информация : Advanced Video Coding
Продолжительность : 1 ч. 17 м.
Битрейт : 328 Кбит/сек
Ширина : 1920 пикселей
Высота : 1080 пикселей
Соотношение сторон : 16:9
Режим частоты кадров : Постоянный
Частота кадров : 30,000 кадров/сек
Цветовое пространство : YUV
Субдискретизация насыщенности : 4:2:0
Битовая глубина : 8 бит
Тип развёртки : Прогрессивная
Бит/(Пиксели*Кадры) : 0.005
Размер потока : 181 Мбайт (71%)
Библиотека кодирования : x264 core 158 r2984 3759fcb
Настройки программы : cabac=0 / ref=1 / deblock=0:0:0 / analyse=0:0 / me=dia / subme=0 / psy=1 / psy_rd=1.00:0.00 / mixed_ref=0 / me_range=16 / chroma_me=1 / trellis=0 / 8x8dct=0 / cqm=0 / deadzone=21,11 / fast_pskip=1 / chroma_qp_offset=0 / threads=8 / lookahead_threads=8 / sliced_threads=1 / slices=8 / nr=0 / decimate=1 / interlaced=0 / bluray_compat=0 / constrained_intra=0 / bframes=0 / weightp=0 / keyint=250 / keyint_min=25 / scenecut=0 / intra_refresh=0 / rc=crf / mbtree=0 / crf=28.0 / qcomp=0.60 / qpmin=0 / qpmax=69 / qpstep=4 / ip_ratio=1.40 / aq=0
Codec configuration box : avcC

Аудио
Идентификатор : 2
Формат : AAC LC
Формат/Информация : Advanced Audio Codec Low Complexity
Идентификатор кодека : mp4a-40-2
Продолжительность : 1 ч. 17 м.
Вид битрейта : Постоянный
Битрейт : 129 Кбит/сек
Каналы : 2 канала
ChannelLayout : L R
Частота : 44,1 КГц
Частота кадров : 43,066 кадра/сек (1024 SPF)
Метод сжатия : С потерями
Размер потока : 71,3 Мбайт (28%)
Default : Да
AlternateGroup/String : 1

Скриншоты:
pic pic pic pic

Этот торрент недоступен для скачивания без регистрации, однако доступен по публичной magnet-ссылке (источники с публичных трекеров). Перед использованием ссылки прочтите, пожалуйста Пользовательское соглашение, а также как можно дольше оставайтесь на раздаче! Для того, чтобы скачать сам торрент-файл (который видит больше источников), а также для того, чтобы поблагодарить релизера, вам необходимо зарегистрироваться. Если регистрироваться лень - вы можете также попробовать скачать релиз по нашим партнерским ссылкам ниже. Кроме того, зарегистрированным пользователям не показывается всплывающая реклама при скачивании.

[underver.se].t163468.torrent
Трекер: Зарегистрирован   [ 25.03.2020 18:09 ]  

Статус: проверено (by Паукан at 25.03.2020 18:09)
Поблагодарили: пока никто не поблагодарил...
Тип торрента: публичный - доступные источники с открытых трекеров: 
Размер: 7,05 GB (занимает 1,61 DVDR, для записи нужно 2 болванки DVDR/RW)
 
 
Похожие темы
Форум Тема Автор Торрент Отв. Посл. сооб.
Компьютерные видеоуроки OTUS - Архитектор высоких нагрузок [2019 г., программирование, PCRec] Паукан
89 | 1

0 | 155

9

13.03.2020 20:27


Яндекс.Метрика powered by Sphinx


В Н И М А Н И Е
Сайт не распространяет и не хранит электронные версии произведений, а лишь бесплатно и без коммерческой выгоды (не требуя взамен платы,
SMS и т.д.) предоставляет доступ к создаваемому пользователями каталогу ссылок на торрент-файлы, которые содержат только списки хеш-сумм.
Убедительная просьба с жалобами обращаться напрямую к пользователю, разместившему торрент файл.

Вверх