Loading...
Error

OTUS - Machine learning [2020 г., программирование, PCRec]

Статистика раздачи
Размер:  6,76 GB   |    Зарегистрирован:  4 дня   |    Скачан:  5 раз
Сидов:  1  |  21 KB/s  ]   Личеров:  0  |  0 KB/s  ]

* - сиды/пиры с внешних источников

   
 
Автор Сообщение

Паукан Пол:Муж

25-Мар-2020 18:10

OTUS - Machine learning (2020) PCRec [H.264]

Автор (режиссер): OTUS
Жанр: Программирование

Описание:
За 5 месяцев мы последовательно познакомимся с современными методами анализа данных. Курс позволит не просто поверхностно изучить принципы работы алгоритмов машинного обучения, а на профессиональном уровне освоить и применять в работе все этапы работы с данными, понимая, как, когда и зачем они используются.

Продолжительность: 54:59:21
Качество видео: PCRec

Видео: AVC/H.264, 1440x822-1680x1050, ~67-359 Kbps
Аудио: AAC, 1 ch, 53-70 Kbps
 
Общее
Полное имя :.\03. Exploratory Data Analysis and Preprocessing\03_2.mp4
Формат : MPEG-4
Профиль формата : Base Media / Version 2
Идентификатор кодека : mp42 (isom/mp42)
Размер файла : 26,0 Мбайт
Продолжительность : 20 м. 46 с.
Режим общего битрейта : Переменный
Общий поток : 175 Кбит/сек
Дата кодирования : UTC 2019-09-09 19:16:42
Дата пометки : UTC 2019-09-09 19:16:42

Видео
Идентификатор : 2
Формат : AVC
Формат/Информация : Advanced Video Codec
Профиль формата : High@L5
Настройки формата : CABAC / 11 Ref Frames
Параметр CABAC формата : Да
Параметр RefFrames формата : 11 кадров
Идентификатор кодека : avc1
Идентификатор кодека/Информация : Advanced Video Coding
Продолжительность : 20 м. 46 с.
Битрейт : 119 Кбит/сек
Ширина : 1440 пикселей
Высота : 822 пикселя
Соотношение сторон : 16:9
Режим частоты кадров : Постоянный
Частота кадров : 25,000 кадров/сек
Цветовое пространство : YUV
Субдискретизация насыщенности : 4:2:0
Битовая глубина : 8 бит
Тип развёртки : Прогрессивная
Бит/(Пиксели*Кадры) : 0.004
Размер потока : 17,7 Мбайт (68%)
Дата кодирования : UTC 2019-09-09 19:16:42
Дата пометки : UTC 2019-09-09 19:16:42
Codec configuration box : avcC

Аудио
Идентификатор : 1
Формат : AAC LC
Формат/Информация : Advanced Audio Codec Low Complexity
Идентификатор кодека : mp4a-40-2
Продолжительность : 20 м. 46 с.
Вид битрейта : Переменный
Битрейт : 53,4 Кбит/сек
Максимальный битрейт : 126 Кбит/сек
Каналы : 1 канал
ChannelLayout : C
Частота : 32,0 КГц
Частота кадров : 31,250 кадров/сек (1024 SPF)
Метод сжатия : С потерями
Размер потока : 7,93 Мбайт (31%)
Заголовок : AAC audio
Дата кодирования : UTC 2019-09-09 19:16:42
Дата пометки : UTC 2019-09-09 19:16:42

Общее
Полное имя : .\11. Ансамбли моделей\11.mp4
Формат : MPEG-4
Профиль формата : Base Media / Version 2
Идентификатор кодека : mp42 (isom/mp42)
Размер файла : 135 Мбайт
Продолжительность : 1 ч. 54 м.
Режим общего битрейта : Переменный
Общий поток : 165 Кбит/сек
Дата кодирования : UTC 2019-10-07 19:04:26
Дата пометки : UTC 2019-10-07 19:04:26

Видео
Идентификатор : 2
Формат : AVC
Формат/Информация : Advanced Video Codec
Профиль формата : High@L5
Настройки формата : CABAC / 11 Ref Frames
Параметр CABAC формата : Да
Параметр RefFrames формата : 11 кадров
Идентификатор кодека : avc1
Идентификатор кодека/Информация : Advanced Video Coding
Продолжительность : 1 ч. 54 м.
Битрейт : 109 Кбит/сек
Ширина : 1440 пикселей
Высота : 826 пикселей
Соотношение сторон : 16:9
Режим частоты кадров : Постоянный
Частота кадров : 25,000 кадров/сек
Цветовое пространство : YUV
Субдискретизация насыщенности : 4:2:0
Битовая глубина : 8 бит
Тип развёртки : Прогрессивная
Бит/(Пиксели*Кадры) : 0.004
Размер потока : 89,3 Мбайт (66%)
Дата кодирования : UTC 2019-10-07 19:04:26
Дата пометки : UTC 2019-10-07 19:04:26
Codec configuration box : avcC

Аудио
Идентификатор : 1
Формат : AAC LC
Формат/Информация : Advanced Audio Codec Low Complexity
Идентификатор кодека : mp4a-40-2
Продолжительность : 1 ч. 54 м.
Вид битрейта : Переменный
Битрейт : 53,4 Кбит/сек
Максимальный битрейт : 129 Кбит/сек
Каналы : 1 канал
ChannelLayout : C
Частота : 32,0 КГц
Частота кадров : 31,250 кадров/сек (1024 SPF)
Метод сжатия : С потерями
Размер потока : 43,6 Мбайт (32%)
Заголовок : AAC audio
Дата кодирования : UTC 2019-10-07 19:04:26
Дата пометки : UTC 2019-10-07 19:04:26

Общее
Полное имя : .\05. Задача регрессии. Линейная регрессия\05.mp4
Формат : MPEG-4
Профиль формата : Base Media / Version 2
Идентификатор кодека : mp42 (isom/mp42)
Размер файла : 227 Мбайт
Продолжительность : 2 ч. 5 м.
Режим общего битрейта : Переменный
Общий поток : 252 Кбит/сек
Дата кодирования : UTC 2019-09-17 06:00:41
Дата пометки : UTC 2019-09-17 06:00:41

Видео
Идентификатор : 2
Формат : AVC
Формат/Информация : Advanced Video Codec
Профиль формата : High@L5
Настройки формата : CABAC / 11 Ref Frames
Параметр CABAC формата : Да
Параметр RefFrames формата : 11 кадров
Идентификатор кодека : avc1
Идентификатор кодека/Информация : Advanced Video Coding
Продолжительность : 2 ч. 5 м.
Битрейт : 197 Кбит/сек
Ширина : 1680 пикселей
Высота : 1050 пикселей
Соотношение сторон : 16:10
Режим частоты кадров : Постоянный
Частота кадров : 25,000 кадров/сек
Цветовое пространство : YUV
Субдискретизация насыщенности : 4:2:0
Битовая глубина : 8 бит
Тип развёртки : Прогрессивная
Бит/(Пиксели*Кадры) : 0.004
Размер потока : 177 Мбайт (78%)
Дата кодирования : UTC 2019-09-17 06:00:41
Дата пометки : UTC 2019-09-17 06:00:41
Codec configuration box : avcC

Аудио
Идентификатор : 1
Формат : AAC LC
Формат/Информация : Advanced Audio Codec Low Complexity
Идентификатор кодека : mp4a-40-2
Продолжительность : 2 ч. 5 м.
Вид битрейта : Переменный
Битрейт : 53,3 Кбит/сек
Максимальный битрейт : 127 Кбит/сек
Каналы : 1 канал
ChannelLayout : C
Частота : 32,0 КГц
Частота кадров : 31,250 кадров/сек (1024 SPF)
Метод сжатия : С потерями
Размер потока : 47,9 Мбайт (21%)
Заголовок : AAC audio
Дата кодирования : UTC 2019-09-17 06:00:41
Дата пометки : UTC 2019-09-17 06:00:41

Скриншоты:
pic pic pic pic

Этот торрент недоступен для скачивания без регистрации, однако доступен по публичной magnet-ссылке (источники с публичных трекеров). Перед использованием ссылки прочтите, пожалуйста Пользовательское соглашение, а также как можно дольше оставайтесь на раздаче! Для того, чтобы скачать сам торрент-файл (который видит больше источников), а также для того, чтобы поблагодарить релизера, вам необходимо зарегистрироваться. Если регистрироваться лень - вы можете также попробовать скачать релиз по нашим партнерским ссылкам ниже. Кроме того, зарегистрированным пользователям не показывается всплывающая реклама при скачивании.

[underver.se].t163469.torrent
Трекер: Зарегистрирован   [ 25.03.2020 18:10 ]  

Статус: проверено (by Паукан at 25.03.2020 18:10)
Поблагодарили: пока никто не поблагодарил...
Тип торрента: публичный - доступные источники с открытых трекеров: 
Размер: 6,76 GB (занимает 1,54 DVDR, для записи нужно 2 болванки DVDR/RW)
 
 

Яндекс.Метрика powered by Sphinx


В Н И М А Н И Е
Сайт не распространяет и не хранит электронные версии произведений, а лишь бесплатно и без коммерческой выгоды (не требуя взамен платы,
SMS и т.д.) предоставляет доступ к создаваемому пользователями каталогу ссылок на торрент-файлы, которые содержат только списки хеш-сумм.
Убедительная просьба с жалобами обращаться напрямую к пользователю, разместившему торрент файл.

Вверх