Loading...
Error

OTUS - Android-разработчик. Продвинутый курс [2019 г., программирование, PCRec]

Статистика раздачи
Размер:  11,36 GB   |    Зарегистрирован:  16 дней   |    Скачан:  10 раз
Сидов:  5  |  223 KB/s  ]   Личеров:  0  |  0 KB/s  ]

* - сиды/пиры с внешних источников

   
 
Автор Сообщение

Паукан Пол:Муж

25-Мар-2020 18:11

OTUS - Android-разработчик. Продвинутый курс (2019) PCRec [H.264]

Автор (режиссер): OTUS
Жанр: Программирование, Android, Kotlin

Описание:
Курс обеспечивает глубокое погружение в промышленную Android-разработку на языке Kotlin, и за 5 месяцев позволяет прокачать свои навыки с уровня Junior до Middle или Senior Android-разработчика.

Продолжительность: 65:28:47
Качество видео: PCRec

Видео: AVC/H.264, 640x360-1920x1080, ~32-1899 Kbps
Аудио: AAC, 1-2 ch, 32-192 Kbps
 
Общее
Полное имя : .\22. Бонусное занятие №2. Mock собеседование\Вебинар.mp4
Формат : MPEG-4
Профиль формата : Base Media / Version 2
Идентификатор кодека : mp42 (isom/mp42)
Размер файла : 434 Мбайт
Продолжительность : 1 ч. 59 м.
Режим общего битрейта : Переменный
Общий поток : 507 Кбит/сек
Дата кодирования : UTC 2019-10-07 20:09:29
Дата пометки : UTC 2019-10-07 20:09:29

Видео
Идентификатор : 1
Формат : AVC
Формат/Информация : Advanced Video Codec
Профиль формата : High@L3.1
Настройки формата : CABAC / 11 Ref Frames
Параметр CABAC формата : Да
Параметр RefFrames формата : 11 кадров
Идентификатор кодека : avc1
Идентификатор кодека/Информация : Advanced Video Coding
Продолжительность : 1 ч. 59 м.
Битрейт : 452 Кбит/сек
Ширина : 640 пикселей
Высота : 360 пикселей
Соотношение сторон : 16:9
Режим частоты кадров : Постоянный
Частота кадров : 25,000 кадров/сек
Цветовое пространство : YUV
Субдискретизация насыщенности : 4:2:0
Битовая глубина : 8 бит
Тип развёртки : Прогрессивная
Бит/(Пиксели*Кадры) : 0.078
Размер потока : 387 Мбайт (89%)
Дата кодирования : UTC 2019-10-07 20:09:29
Дата пометки : UTC 2019-10-07 20:09:29
Codec configuration box : avcC

Аудио
Идентификатор : 2
Формат : AAC LC
Формат/Информация : Advanced Audio Codec Low Complexity
Идентификатор кодека : mp4a-40-2
Продолжительность : 1 ч. 59 м.
Вид битрейта : Переменный
Битрейт : 52,5 Кбит/сек
Максимальный битрейт : 128 Кбит/сек
Каналы : 1 канал
ChannelLayout : C
Частота : 32,0 КГц
Частота кадров : 31,250 кадров/сек (1024 SPF)
Метод сжатия : С потерями
Размер потока : 45,0 Мбайт (10%)
Заголовок : AAC audio
Дата кодирования : UTC 2019-10-07 20:09:29
Дата пометки : UTC 2019-10-07 20:09:29

Общее
Полное имя : .\05. Advanced Service\Background Check and Other Insights into the Android Operating System Framework .mp4
Формат : MPEG-4
Профиль формата : Base Media / Version 2
Идентификатор кодека : mp42 (isom/mp42)
Размер файла : 78,5 Мбайт
Продолжительность : 29 м. 34 с.
Режим общего битрейта : Переменный
Общий поток : 371 Кбит/сек
Дата кодирования : UTC 2017-05-18 01:56:56
Дата пометки : UTC 2017-05-18 01:56:56
gsst : 0
gstd : 1774352

Видео
Идентификатор : 1
Формат : AVC
Формат/Информация : Advanced Video Codec
Профиль формата : Main@L3.1
Настройки формата : CABAC / 3 Ref Frames
Параметр CABAC формата : Да
Параметр RefFrames формата : 3 кадра
Идентификатор кодека : avc1
Идентификатор кодека/Информация : Advanced Video Coding
Продолжительность : 29 м. 34 с.
Битрейт : 242 Кбит/сек
Ширина : 1280 пикселей
Высота : 720 пикселей
Соотношение сторон : 16:9
Режим частоты кадров : Постоянный
Частота кадров : 29,970 (30000/1001) кадров/сек
Цветовое пространство : YUV
Субдискретизация насыщенности : 4:2:0
Битовая глубина : 8 бит
Тип развёртки : Прогрессивная
Бит/(Пиксели*Кадры) : 0.009
Размер потока : 51,2 Мбайт (65%)
Заголовок : ISO Media file produced by Google Inc.
Дата кодирования : UTC 2017-05-18 01:56:56
Дата пометки : UTC 2017-05-18 01:56:56
Цветовой диапазон : Limited
Основные цвета : BT.709
Характеристики трансфера : BT.709
Коэффициенты матрицы : BT.709
Codec configuration box : avcC

Аудио
Идентификатор : 2
Формат : AAC LC
Формат/Информация : Advanced Audio Codec Low Complexity
Идентификатор кодека : mp4a-40-2
Продолжительность : 29 м. 34 с.
Вид битрейта : Переменный
Битрейт : 126 Кбит/сек
Каналы : 2 канала
ChannelLayout : L R
Частота : 44,1 КГц
Частота кадров : 43,066 кадра/сек (1024 SPF)
Метод сжатия : С потерями
Размер потока : 26,6 Мбайт (34%)
Заголовок : ISO Media file produced by Google Inc.
Дата кодирования : UTC 2017-05-18 01:56:56
Дата пометки : UTC 2017-05-18 01:56:56

Общее
Полное имя : .\06. Advanced Views\Вебинар.mp4
Формат : MPEG-4
Профиль формата : Base Media / Version 2
Идентификатор кодека : mp42 (isom/mp42)
Размер файла : 383 Мбайт
Продолжительность : 2 ч. 27 м.
Режим общего битрейта : Переменный
Общий поток : 363 Кбит/сек
Дата кодирования : UTC 2019-07-22 19:29:12
Дата пометки : UTC 2019-07-22 19:29:12

Видео
Идентификатор : 2
Формат : AVC
Формат/Информация : Advanced Video Codec
Профиль формата : High@L5
Настройки формата : CABAC / 11 Ref Frames
Параметр CABAC формата : Да
Параметр RefFrames формата : 11 кадров
Идентификатор кодека : avc1
Идентификатор кодека/Информация : Advanced Video Coding
Продолжительность : 2 ч. 27 м.
Битрейт : 307 Кбит/сек
Ширина : 1680 пикселей
Высота : 1050 пикселей
Соотношение сторон : 16:10
Режим частоты кадров : Постоянный
Частота кадров : 25,000 кадров/сек
Цветовое пространство : YUV
Субдискретизация насыщенности : 4:2:0
Битовая глубина : 8 бит
Тип развёртки : Прогрессивная
Бит/(Пиксели*Кадры) : 0.007
Размер потока : 324 Мбайт (85%)
Дата кодирования : UTC 2019-07-22 19:29:12
Дата пометки : UTC 2019-07-22 19:29:12
Codec configuration box : avcC

Аудио
Идентификатор : 1
Формат : AAC LC
Формат/Информация : Advanced Audio Codec Low Complexity
Идентификатор кодека : mp4a-40-2
Продолжительность : 2 ч. 27 м.
Вид битрейта : Переменный
Битрейт : 53,3 Кбит/сек
Максимальный битрейт : 114 Кбит/сек
Каналы : 1 канал
ChannelLayout : C
Частота : 32,0 КГц
Частота кадров : 31,250 кадров/сек (1024 SPF)
Метод сжатия : С потерями
Размер потока : 56,2 Мбайт (15%)
Заголовок : AAC audio
Дата кодирования : UTC 2019-07-22 19:29:12
Дата пометки : UTC 2019-07-22 19:29:12

Общее
Полное имя : .\07. Advanced Canvas\Вебинар.mp4
Формат : MPEG-4
Профиль формата : Base Media / Version 2
Идентификатор кодека : mp42 (isom/mp42)
Размер файла : 360 Мбайт
Продолжительность : 2 ч. 8 м.
Режим общего битрейта : Переменный
Общий поток : 391 Кбит/сек
Дата кодирования : UTC 2019-07-25 19:33:54
Дата пометки : UTC 2019-07-25 19:33:54

Видео
Идентификатор : 2
Формат : AVC
Формат/Информация : Advanced Video Codec
Профиль формата : High@L5
Настройки формата : CABAC / 11 Ref Frames
Параметр CABAC формата : Да
Параметр RefFrames формата : 11 кадров
Идентификатор кодека : avc1
Идентификатор кодека/Информация : Advanced Video Coding
Продолжительность : 2 ч. 8 м.
Битрейт : 336 Кбит/сек
Ширина : 1920 пикселей
Высота : 1080 пикселей
Соотношение сторон : 16:9
Режим частоты кадров : Постоянный
Частота кадров : 25,000 кадров/сек
Цветовое пространство : YUV
Субдискретизация насыщенности : 4:2:0
Битовая глубина : 8 бит
Тип развёртки : Прогрессивная
Бит/(Пиксели*Кадры) : 0.006
Размер потока : 309 Мбайт (86%)
Дата кодирования : UTC 2019-07-25 19:33:54
Дата пометки : UTC 2019-07-25 19:33:54
Codec configuration box : avcC

Аудио
Идентификатор : 1
Формат : AAC LC
Формат/Информация : Advanced Audio Codec Low Complexity
Идентификатор кодека : mp4a-40-2
Продолжительность : 2 ч. 8 м.
Вид битрейта : Переменный
Битрейт : 53,3 Кбит/сек
Максимальный битрейт : 128 Кбит/сек
Каналы : 1 канал
ChannelLayout : C
Частота : 32,0 КГц
Частота кадров : 31,250 кадров/сек (1024 SPF)
Метод сжатия : С потерями
Размер потока : 49,1 Мбайт (14%)
Заголовок : AAC audio
Дата кодирования : UTC 2019-07-25 19:33:54
Дата пометки : UTC 2019-07-25 19:33:54

Скриншоты:
pic pic pic pic

Этот торрент недоступен для скачивания без регистрации, однако доступен по публичной magnet-ссылке (источники с публичных трекеров). Перед использованием ссылки прочтите, пожалуйста Пользовательское соглашение, а также как можно дольше оставайтесь на раздаче! Для того, чтобы скачать сам торрент-файл (который видит больше источников), а также для того, чтобы поблагодарить релизера, вам необходимо зарегистрироваться. Если регистрироваться лень - вы можете также попробовать скачать релиз по нашим партнерским ссылкам ниже. Кроме того, зарегистрированным пользователям не показывается всплывающая реклама при скачивании.

[underver.se].t163470.torrent
Трекер: Зарегистрирован   [ 25.03.2020 18:11 ]  

Статус: проверено (by Паукан at 25.03.2020 18:11)
Поблагодарили: пока никто не поблагодарил...
Тип торрента: публичный - доступные источники с открытых трекеров: 
Размер: 11,36 GB (занимает 2,59 DVDR, для записи нужно 3 болванки DVDR/RW)
 
 
Похожие темы
Форум Тема Автор Торрент Отв. Посл. сооб.
Компьютерные видеоуроки OTUS - Android-разработчик. Базовый курс [2019 г., программирование, PCRec] Паукан
94 | 0

0 | 119

8

03.04.2020 20:10


Яндекс.Метрика powered by Sphinx


В Н И М А Н И Е
Сайт не распространяет и не хранит электронные версии произведений, а лишь бесплатно и без коммерческой выгоды (не требуя взамен платы,
SMS и т.д.) предоставляет доступ к создаваемому пользователями каталогу ссылок на торрент-файлы, которые содержат только списки хеш-сумм.
Убедительная просьба с жалобами обращаться напрямую к пользователю, разместившему торрент файл.

Вверх