Loading...
Error

CyberBionic - Практикум по алгоритмам [2020 г., программирование, PCRec]

Статистика раздачи
Размер:  3,26 GB   |    Зарегистрирован:  16 дней   |    Скачан:  9 раз
Сидов:  4  |  17 KB/s  ]   Личеров:  0  |  0 KB/s  ]

* - сиды/пиры с внешних источников

   
 
Автор Сообщение

Паукан Пол:Муж

25-Мар-2020 18:11

CyberBionic - Практикум по алгоритмам (2020) PCRec [H.264]

Автор (режиссер): CyberBionic
Производство: Евгений Волосатов
Жанр: Программирование

Описание:
Курс предназначен для начинающих программистов, студентов, изучающих компьютерные науки, а также для IT-инженеров, которые желают понять, как решать комбинаторные задачи и оптимизировать алгоритмы.

Продолжительность: 15:00:00
Качество видео: PCRec

Видео: AVC/H.264, 1280x720-2560х1080, ~461-1079 Kbps
Аудио: AAC, 2 ch, 128-188 Kbps
 
Общее
Полное имя : .\2. Простые числа. Оптимизация алгоритмов\2a Простые числа.mp4
Формат : MPEG-4
Профиль формата : Base Media / Version 2
Идентификатор кодека : mp42 (isom/mp42)
Размер файла : 175 Мбайт
Продолжительность : 45 м. 6 с.
Режим общего битрейта : Переменный
Общий поток : 543 Кбит/сек
Дата кодирования : UTC 2020-02-13 20:18:04
Дата пометки : UTC 2020-02-13 20:18:04
Программа кодирования : Google
gsst : 0
gstd : 2706262

Видео
Идентификатор : 1
Формат : AVC
Формат/Информация : Advanced Video Codec
Профиль формата : High@L3.1
Настройки формата : CABAC / 3 Ref Frames
Параметр CABAC формата : Да
Параметр RefFrames формата : 3 кадра
Идентификатор кодека : avc1
Идентификатор кодека/Информация : Advanced Video Coding
Продолжительность : 45 м. 6 с.
Битрейт : 412 Кбит/сек
Ширина : 1280 пикселей
Высота : 720 пикселей
Соотношение сторон : 16:9
Режим частоты кадров : Постоянный
Частота кадров : 29,520 кадров/сек
Цветовое пространство : YUV
Субдискретизация насыщенности : 4:2:0
Битовая глубина : 8 бит
Тип развёртки : Прогрессивная
Бит/(Пиксели*Кадры) : 0.015
Размер потока : 133 Мбайт (76%)
Заголовок : ISO Media file produced by Google Inc. Created on: 02/13/2020.
Дата кодирования : UTC 2020-02-13 20:18:04
Дата пометки : UTC 2020-02-13 20:18:04
Цветовой диапазон : Limited
Основные цвета : BT.709
Характеристики трансфера : BT.709
Коэффициенты матрицы : BT.709
Codec configuration box : avcC

Аудио
Идентификатор : 2
Формат : AAC LC
Формат/Информация : Advanced Audio Codec Low Complexity
Идентификатор кодека : mp4a-40-2
Продолжительность : 45 м. 6 с.
Вид битрейта : Переменный
Битрейт : 128 Кбит/сек
Каналы : 2 канала
ChannelLayout : L R
Частота : 44,1 КГц
Частота кадров : 43,066 кадра/сек (1024 SPF)
Метод сжатия : С потерями
Размер потока : 41,3 Мбайт (24%)
Заголовок : ISO Media file produced by Google Inc. Created on: 02/13/2020.
Язык : English
Дата кодирования : UTC 2020-02-13 20:18:04
Дата пометки : UTC 2020-02-13 20:18:04

Общее
Полное имя : .\8. Сложные задачи на перебор вариантов\НОД Делением на два.mp4
Формат : MPEG-4
Профиль формата : Base Media
Идентификатор кодека : isom (mp41)
Размер файла : 163 Мбайт
Продолжительность : 16 м. 48 с.
Режим общего битрейта : Переменный
Общий поток : 1353 Кбит/сек
Дата кодирования : UTC 2020-02-29 18:06:22
Дата пометки : UTC 2020-02-29 18:06:22
Программа кодирования : Bandicam 4.2.0.1439 / GDI

Видео
Идентификатор : 1
Формат : AVC
Формат/Информация : Advanced Video Codec
Профиль формата : Baseline@L5
Настройки формата : 1 Ref Frames
Параметр CABAC формата : Нет
Параметр RefFrames формата : 1 кадр
Идентификатор кодека : avc1
Идентификатор кодека/Информация : Advanced Video Coding
Продолжительность : 16 м. 48 с.
Битрейт : 1164 Кбит/сек
Ширина : 2560 пикселей
Высота : 1080 пикселей
Соотношение сторон : 2,40:1
Режим частоты кадров : Переменный
Частота кадров : 29,970 (29970/1000) кадров/сек
Минимальная частота кадров : 14,993 кадров/сек
Максимальная частота кадров : 30,030 кадров/сек
Цветовое пространство : YUV
Субдискретизация насыщенности : 4:2:0
Битовая глубина : 8 бит
Тип развёртки : Прогрессивная
Бит/(Пиксели*Кадры) : 0.014
Размер потока : 140 Мбайт (86%)
Язык : English
Дата кодирования : UTC 2020-02-29 18:06:22
Дата пометки : UTC 2020-02-29 18:06:22
Codec configuration box : avcC

Аудио
Идентификатор : 2
Формат : AAC LC
Формат/Информация : Advanced Audio Codec Low Complexity
Идентификатор кодека : mp4a-40-2
Продолжительность : 16 м. 48 с.
Duration_LastFrame : -1 мс.
Вид битрейта : Переменный
Битрейт : 180 Кбит/сек
Максимальный битрейт : 285 Кбит/сек
Каналы : 2 канала
ChannelLayout : L R
Частота : 48,0 КГц
Частота кадров : 46,875 кадров/сек (1024 SPF)
Метод сжатия : С потерями
Размер потока : 21,7 Мбайт (13%)
Язык : English
Дата кодирования : UTC 2020-02-29 18:06:22
Дата пометки : UTC 2020-02-29 18:06:22

Скриншоты:
pic pic pic pic

Этот торрент недоступен для скачивания без регистрации, однако доступен по публичной magnet-ссылке (источники с публичных трекеров). Перед использованием ссылки прочтите, пожалуйста Пользовательское соглашение, а также как можно дольше оставайтесь на раздаче! Для того, чтобы скачать сам торрент-файл (который видит больше источников), а также для того, чтобы поблагодарить релизера, вам необходимо зарегистрироваться. Если регистрироваться лень - вы можете также попробовать скачать релиз по нашим партнерским ссылкам ниже. Кроме того, зарегистрированным пользователям не показывается всплывающая реклама при скачивании.

[underver.se].t163471.torrent
Трекер: Зарегистрирован   [ 25.03.2020 18:11 ]  

Статус: проверено (by Паукан at 25.03.2020 18:12)
Поблагодарили: 1 человек
Тип торрента: публичный - доступные источники с открытых трекеров: 
Размер: 3,26 GB (занимает 0,74 DVDR, для записи нужно 1 болванка DVDR/RW)
 
 

Яндекс.Метрика powered by Sphinx


В Н И М А Н И Е
Сайт не распространяет и не хранит электронные версии произведений, а лишь бесплатно и без коммерческой выгоды (не требуя взамен платы,
SMS и т.д.) предоставляет доступ к создаваемому пользователями каталогу ссылок на торрент-файлы, которые содержат только списки хеш-сумм.
Убедительная просьба с жалобами обращаться напрямую к пользователю, разместившему торрент файл.

Вверх