Loading...
Error

Кома (Никита Аргунов) [2019 г., фантастика, фэнтези, боевик, приключения, BD-Remux] [GER Transfer]

Статистика раздачи
Размер:  29,9 GB   |    Зарегистрирован:  4 месяца 3 дня   |    Скачан:  10 раз
Сидов:  1  |  0 KB/s  ]   Личеров:  0  |  0 KB/s  ]

* - сиды/пиры с внешних источников

   
 
Автор Сообщение

makkol Пол:Муж

04-Апр-2020 11:12

Кома
«Нам нужно проснуться»


Год выпуска: 2019
Жанр: фантастика, фэнтези, боевик, приключения
Производство: Россия [Кинокомпания Большое Кино, Fresh Film, Марс Медиа Энтертейнмент]
Режиссер: Никита Аргунов
В ролях: Риналь Мухаметов, Любовь Аксенова, Антон Пампушный, Милош Бикович, Константин Лавроненко, Полина Кузьминская, Ростислав Гулбис, Вилен Бабичев, Игорь Сигаев, Евгения Каратыгина
Сюжет фильма:
После таинственной и страшной аварии молодой, талантливый архитектор приходит в себя в очень странном мире, лишь частично похожем на реальность. Мире, который существует на основе памяти о реальности людей, находящихся в глубокой коме. Память человека фрагментарна, хаотична и непостоянна. Таково и пространство КОМЫ — причудливый набор из воспоминаний, в котором реки, ледники и города могут умещаться в одной комнате, где любые законы физики могут быть нарушены. Герою предстоит выяснить, по каким законам существует это пространство, бороться за жизнь, встретить любовь, найти, наконец, выход в реальный мир и осознать его по-новому, поняв, что такое КОМА на самом деле.

  • Российская премьера: 30 января 2020


Качество видео: BD-Remux

Продолжительность: 01:50:52
Формат: MKV
Видео: MPEG-4 AVC, 1920x1080 (16:9), 24.000 fps, 35.4 Mbps
Аудио #1: русский, оригинал (Лицензия BD GER), DTS-HD MA 5.1, 48 kHz, 2579 kbps
Аудио #2: русский, оригинал (Лицензия BD GER), AC3 5.1, 48 kHz, 640 kbps

Релиз:

Код:

General
Unique ID : 71776768097188780846841904156989731582 (0x35FFB3E4146D3AFAE786300A644432FE)
Complete name : Coma.2019.BDREMUX.1080p.seleZen.mkv
Format : Matroska
Format version : Version 4
File size : 29.9 GiB
Duration : 1 h 50 min
Overall bit rate mode : Variable
Overall bit rate : 38.6 Mb/s
Movie name : Coma 2019 from селезень
Encoded date : UTC 2020-04-03 21:25:40
Writing application : mkvmerge v40.0.0 ('Old Town Road + Pony') 64-bit
Writing library : libebml v1.3.9 + libmatroska v1.5.2

Video
ID : 1
Format : AVC
Format/Info : Advanced Video Codec
Format profile : High@L4.1
Format settings : CABAC / 4 Ref Frames
Format settings, CABAC : Yes
Format settings, Reference : 4 frames
Codec ID : V_MPEG4/ISO/AVC
Duration : 1 h 50 min
Bit rate mode : Variable
Bit rate : 35.4 Mb/s
Maximum bit rate : 37.0 Mb/s
Width : 1 920 pixels
Height : 1 080 pixels
Display aspect ratio : 16:9
Frame rate mode : Constant
Frame rate : 24.000 FPS
Color space : YUV
Chroma subsampling : 4:2:0
Bit depth : 8 bits
Scan type : Progressive
Bits/(Pixel*Frame) : 0.711
Stream size : 27.4 GiB (92%)
Language : German
Default : Yes
Forced : No

Audio #1
ID : 2
Format : DTS XLL
Format/Info : Digital Theater Systems
Commercial name : DTS-HD Master Audio
Codec ID : A_DTS
Duration : 1 h 50 min
Bit rate mode : Variable
Bit rate : 2 579 kb/s
Channel(s) : 6 channels
Channel layout : C L R Ls Rs LFE
Sampling rate : 48.0 kHz
Frame rate : 93.750 FPS (512 SPF)
Bit depth : 24 bits
Compression mode : Lossless
Stream size : 2.00 GiB (7%)
Language : Russian
Default : Yes
Forced : Yes

Audio #2
ID : 3
Format : AC-3
Format/Info : Audio Coding 3
Commercial name : Dolby Digital
Codec ID : A_AC3
Duration : 1 h 50 min
Bit rate mode : Constant
Bit rate : 640 kb/s
Channel(s) : 6 channels
Channel layout : L R C LFE Ls Rs
Sampling rate : 48.0 kHz
Frame rate : 31.250 FPS (1536 SPF)
Compression mode : Lossy
Stream size : 508 MiB (2%)
Language : Russian
Service kind : Complete Main
Default : No
Forced : No

Menu
00:00:00.000 : de:Глава 01
00:12:43.417 : de:Глава 02
00:18:44.667 : de:Глава 03
00:27:36.375 : de:Глава 04
00:34:27.542 : de:Глава 05
00:44:20.375 : de:Глава 06
00:49:26.500 : de:Глава 07
00:57:33.375 : de:Глава 08
01:05:32.167 : de:Глава 09
01:13:06.083 : de:Глава 10
01:23:10.167 : de:Глава 11
01:29:08.333 : de:Глава 12
01:34:09.667 : de:Глава 13
01:40:00.750 : de:Глава 14
01:43:39.958 : de:Глава 15
01:46:51.042 : de:Глава 16

Этот торрент недоступен для скачивания без регистрации, однако доступен по публичной magnet-ссылке (источники с публичных трекеров). Перед использованием ссылки прочтите, пожалуйста Пользовательское соглашение, а также как можно дольше оставайтесь на раздаче! Для того, чтобы скачать сам торрент-файл (который видит больше источников), а также для того, чтобы поблагодарить релизера, вам необходимо зарегистрироваться. Если регистрироваться лень - вы можете также попробовать скачать релиз по нашим партнерским ссылкам ниже. Кроме того, зарегистрированным пользователям не показывается всплывающая реклама при скачивании.

[underver.se].t164136.torrent
Трекер: Зарегистрирован   [ 04.04.2020 11:12 ]  

Статус: проверено (by makkol at 04.04.2020 11:13)
Поблагодарили: 1 человек
Тип торрента: публичный - доступные источники с открытых трекеров: 
Размер: 29,9 GB (занимает 6,83 DVDR, для записи нужно 7 болванок DVDR/RW)
 
 
Похожие темы
Форум Тема Автор Торрент Отв. Посл. сооб.
Наше кино [DVDRip, Low-Res HDRip, и т.д.] Кома (Никита Аргунов) [2019 г., фантастика, фэнтези, боевик, приключения, BDRip] [GER Transfer] makkol
351 | 7

0 | 2625

54

04.04.2020 10:33

Наше кино [DVDRip, Low-Res HDRip, и т.д.] Кома (Никита Аргунов) [2019 г., фантастика, фэнтези, боевик, приключения, BDRip-AVC] [GER Transfer] makkol
113 | 2

0 | 1497

20

04.04.2020 10:39

Наше кино [DVDRip, Low-Res HDRip, и т.д.] Кома (Никита Аргунов) [2019 г., фантастика, фэнтези, боевик, приключения, HDRip] [GER Transfer] Rus (Original) + Ger (Dub) makkol
10 | 0

0 | 1257

17

04.04.2020 10:46

Наше кино [HDDVDRip / BDRip / WEB-DL / HDTV 1080/720р] Кома (Никита Аргунов) [2019 г., фантастика, фэнтези, боевик, приключения, BDRip 720p] [GER Transfer] Rus (Original) + Ger (Dub) makkol
134 | 3

0 | 1427

26

04.04.2020 10:55

Наше кино [HDDVDRip / BDRip / WEB-DL / HDTV 1080/720р] Кома (Никита Аргунов) [2019 г., фантастика, фэнтези, боевик, приключения, BDRip 1080p] [GER Transfer] makkol
102 | 3

0 | 1781

59

04.04.2020 11:05


Яндекс.Метрика powered by Sphinx


В Н И М А Н И Е
Сайт не распространяет и не хранит электронные версии произведений, а лишь бесплатно и без коммерческой выгоды (не требуя взамен платы,
SMS и т.д.) предоставляет доступ к создаваемому пользователями каталогу ссылок на торрент-файлы, которые содержат только списки хеш-сумм.
Убедительная просьба с жалобами обращаться напрямую к пользователю, разместившему торрент файл.

Вверх