Loading...
Error

Легенды «Смертельной битвы»: Месть Скорпиона/ Mortal Kombat Legends: Scorpions Revenge (Этан Сполдинг) [2019, Мультфильм, фэнтези, боевик, приключения,BluRay - HEVC 1080p] [NewComers+ENG]+[Subs ENG]

Статистика раздачи
Размер:  3.09 GB   |    Зарегистрирован:  2 года 5 месяцев   |    Скачан:  14 раз

Полного источника не было: 10 месяцев

Сидов:  0  |  0 KB/s  ]   Личеров:  0  |  0 KB/s  ]

* - сиды/пиры с внешних источников

   
 
Автор Сообщение

Nikolai.Baranov 

20-Апр-2020 11:19





Легенды «Смертельной битвы»: Месть Скорпиона/ Mortal Kombat Legends: Scorpions Revenge






Год выпуска: 2020
Выпущено: США , DC Entertainment, Midway Games, Warner Bros. Animation
Жанр: Мультфильм, фэнтези, боевик, приключения
Продолжительность: 01:20:00

Озвучка #1: Профессиональный многоголосый - Творческое объединение NewComers - Русский

Озвучка #2: Профессиональный многоголосый -Английский - Оригинал

Субтитры: English, English SDH


Релиз Без Рекламы - Ненормативная лексика

MDB 7.6

Режиссеры:
Этан Сполдинг

В ролях: Дженнифер Карпентер, Грей ДеЛайл, Джоэл МакХэйл, Кевин Майкл Ричардсон, Стивен Блум, Дэрин Де Пол, Робин Аткин Даунс, Фред Таташиор, Джордан Родригез, Патрик Сэйтц

НаСюжет мультфильма расскажет об очередном смертельном турнире Шан Цзуна, в котором участвуют бойцы с Земли и других миров. В центре истории окажется жаждущий мести за смерть семьи и клана Скорпион, который соглашается принять участие в межпространственном состязании..



Качество : BluRay - HEVC 10bit - 1080p

Формат: MKV

Видео кодек: H265

Видео: 3951Кбит/сек,1920х1080(16.9),в 23.976кадр/сек, HEVC ([email protected]@Main)

Аудио Кодек:AC3

Аудио #1: MVO NewComers @DD5.1 AC3, 640 Kbps, 48.0 KHz, 6 ch - Творческое объединение NewComers -Русский

Аудио #4: [email protected] AC3 , 640 Kbps, 48.0 KHz, 6 ch - English - Оригинал

Звуковая дорожка сделана путем наложения чистого голоса озвучивателей на центральный канал оригинальной дорожки. Качество идентично звуковой дорожке.


Общее
Уникальный идентификатор : 79797807491866102482186991299781150842 (0x3C087FAA71666234496B40DDE793487A)
Полное имя : E:\RussianPatriot\Легенды «Смертельной битвы» Месть Скорпиона - Mortal Kombat Legends Scorpions Revenge\Mortal.Kombat.Legends.Scorpions.Revenge_HEVC_DD5.1_N.B_BD_1080_Rus_Eng\Mortal.Kombat.Legends.Scorpions.Revenge _HEVC_DD5.1_N.B_BD_1080_Rus_Eng.mkv
Формат : Matroska
Версия формата : Version 4
Размер файла : 2,93 Гбайт
Продолжительность : 1 ч. 19 м.
Общий поток : 5 242 Кбит/сек
Название фильма : Mortal Kombat Legends Scorpions Revenge 2020 @ Nikolai.Baranov & PIRATIYA
Дата кодирования : UTC 2020-04-20 09:04:36
Программа кодирования : mkvmerge v45.0.0 ('Heaven in Pennies') 64-bit
Библиотека кодирования : libebml v1.3.10 + libmatroska v1.5.2

Видео
Идентификатор : 1
Формат : HEVC
Формат/Информация : High Efficiency Video Coding
Профиль формата : Main [email protected]@Main
Идентификатор кодека : V_MPEGH/ISO/HEVC
Продолжительность : 1 ч. 19 м.
Битрейт : 3 951 Кбит/сек
Ширина : 1 920 пикселей
Высота : 1 080 пикселей
Соотношение сторон : 16:9
Режим частоты кадров : Постоянный
Частота кадров : 23,976 (24000/1001) кадра/сек
Цветовое пространство : YUV
Субдискретизация насыщенности : 4:2:0
Битовая глубина : 10 бит
Бит/(Пиксели*Кадры) : 0.079
Размер потока : 2,21 Гбайт (75%)
Заголовок : Mortal.Kombat.Legends.Scorpions.Revenge _HEVC_DD5.1_N.B_BD_1080_Rus_Eng
Язык : Russian
Default : Да
Forced : Нет
Цветовой диапазон : Full
Основные цвета : BT.709
Характеристики трансфера : BT.709
Коэффициенты матрицы : BT.709

Аудио #1
Идентификатор : 2
Формат : AC-3
Формат/Информация : Audio Coding 3
Коммерческое название : Dolby Digital
Идентификатор кодека : A_AC3
Продолжительность : 1 ч. 19 м.
Вид битрейта : Постоянный
Битрейт : 640 Кбит/сек
Каналы : 6 каналов
Channel layout : L R C LFE Ls Rs
Частота : 48,0 КГц
Частота кадров : 31,250 кадров/сек (1536 SPF)
Метод сжатия : С потерями
Размер потока : 366 Мбайт (12%)
Заголовок : MVO NewComers @DD5.1 AC3, 640 Kbps, 48.0 KHz, 6 ch
Язык : Russian
Service kind : Complete Main
Default : Да
Forced : Нет

Аудио #2
Идентификатор : 6
Формат : AC-3
Формат/Информация : Audio Coding 3
Коммерческое название : Dolby Digital
Идентификатор кодека : A_AC3
Продолжительность : 1 ч. 19 м.
Вид битрейта : Постоянный
Битрейт : 640 Кбит/сек
Каналы : 6 каналов
Channel layout : L R C LFE Ls Rs
Частота : 48,0 КГц
Частота кадров : 31,250 кадров/сек (1536 SPF)
Метод сжатия : С потерями
Размер потока : 366 Мбайт (12%)
Заголовок : [email protected] AC3 , 640 Kbps, 48.0 KHz, 6 ch
Язык : English
Service kind : Complete Main
Default : Нет
Forced : Нет

Текст #1
Идентификатор : 3
Формат : UTF-8
Идентификатор кодека : S_TEXT/UTF8
Идентификатор кодека/Информация : UTF-8 Plain Text
Продолжительность : 1 ч. 17 м.
Битрейт : 38 бит/сек
Count of elements : 868
Размер потока : 21,6 Кбайт (0%)
Заголовок : Eng-Forced
Язык : English
Default : Да
Forced : Нет

Текст #2
Идентификатор : 4
Формат : UTF-8
Идентификатор кодека : S_TEXT/UTF8
Идентификатор кодека/Информация : UTF-8 Plain Text
Продолжительность : 1 ч. 17 м.
Битрейт : 44 бит/сек
Count of elements : 1060
Размер потока : 25,3 Кбайт (0%)
Заголовок : Original - SDH
Язык : English
Default : Нет
Forced : Нет

Текст #3
Идентификатор : 5
Формат : PGS
Режим смешивания : zlib
Идентификатор кодека : S_HDMV/PGS
Идентификатор кодека/Информация : Picture based subtitle format used on BDs/HD-DVDs
Продолжительность : 1 ч. 17 м.
Битрейт : 28,6 Кбит/сек
Count of elements : 2120
Размер потока : 15,8 Мбайт (1%)
Заголовок : Original
Язык : English
Default : Нет
Forced : Нет

Меню
00:00:00.000 : en:Chapter 01
00:09:21.978 : en:Chapter 02
00:19:53.567 : en:Chapter 03
00:28:12.107 : en:Chapter 04
00:35:54.277 : en:Chapter 05
00:45:51.082 : en:Chapter 06
00:55:18.690 : en:Chapter 07
01:04:28.448 : en:Chapter 08
01:13:56.724 : en:Chapter 09
01:17:22.429 : en:Chapter 10












Релиз от: Nikolai.Baranov & PIRATIYA . Поблагодарить:
ЯД: 410017546713876








Время раздачи : 24/7

Этот торрент недоступен для скачивания без регистрации, однако доступен по публичной magnet-ссылке (источники с публичных трекеров). Перед использованием ссылки прочтите, пожалуйста Пользовательское соглашение, а также как можно дольше оставайтесь на раздаче! Для того, чтобы скачать сам торрент-файл (который видит больше источников), а также для того, чтобы поблагодарить релизера, вам необходимо зарегистрироваться. Если регистрироваться лень - вы можете также попробовать скачать релиз по нашим партнерским ссылкам ниже. Кроме того, зарегистрированным пользователям не показывается всплывающая реклама при скачивании.

[underver.se].t165788.torrent
Трекер: Зарегистрирован   [ 20.04.2020 11:19 ]  
Статус: проверено (by eXtatik at 18.02.2021 16:58)
Поблагодарили: 2 человека
Тип торрента: публичный - доступные источники с открытых трекеров: 
Размер: 3.09 GB (занимает 0.71 DVDR, для записи нужно 1 болванка DVDR/RW)
 
 
 

Яндекс.Метрика powered by Sphinx


В Н И М А Н И Е
Сайт не распространяет и не хранит электронные версии произведений, а лишь бесплатно и без коммерческой выгоды (не требуя взамен платы,
SMS и т.д.) предоставляет доступ к создаваемому пользователями каталогу ссылок на торрент-файлы, которые содержат только списки хеш-сумм.
Убедительная просьба с жалобами обращаться напрямую к пользователю, разместившему торрент файл.

Вверх